<?xml version="1.0" standalone="no"?>
<!DOCTYPE svg PUBLIC "-//W3C//DTD SVG 1.1//EN" "http://www.w3.org/Graphics/SVG/1.1/DTD/svg11.dtd" >
<svg xmlns="http://www.w3.org/2000/svg">
<metadata>Generated by IcoMoon</metadata>
<defs>
<font id="icomoon" horiz-adv-x="1024">
<font-face units-per-em="1024" ascent="960" descent="-64" />
<missing-glyph horiz-adv-x="1024" />
<glyph unicode="&#x20;" horiz-adv-x="512" d="" />
<glyph unicode="&#xe900;" d="M548.518-42.654c-17.446 0.068-34.603 4.156-49.933 11.895-15.326 7.74-28.352 18.889-37.905 32.452l-163.262 226.628c-13.094 18.176-20.085 39.552-20.085 61.423s6.991 43.251 20.085 61.427l152.284 212.433-107.888 150.789c-7.788 10.596-13.249 22.514-16.073 35.073s-2.953 25.512-0.381 38.118c2.572 12.605 7.794 24.616 15.369 35.344s17.352 19.963 28.773 27.176l47.738 29.271c11.398 7.234 24.244 12.259 37.778 14.774s27.473 2.468 40.99-0.138c13.636-2.447 26.615-7.393 38.17-14.551 11.558-7.158 21.466-16.384 29.141-27.138l163.264-227.514c13.094-18.176 20.083-39.554 20.083-61.424s-6.989-43.249-20.083-61.423l-152.286-212.437 107.887-150.788c7.787-10.586 13.197-22.524 15.902-35.098 2.709-12.574 2.658-25.523-0.149-38.080-4.612-25.161-19.703-47.625-42.005-62.532l-47.74-29.269c-17.626-10.995-38.447-16.721-59.674-16.41z" />
<glyph unicode="&#xe901;" d="M548.518-42.654c-17.446 0.068-34.603 4.156-49.933 11.895-15.326 7.74-28.352 18.889-37.905 32.452l-163.262 226.628c-13.094 18.176-20.085 39.552-20.085 61.423s6.991 43.251 20.085 61.427l152.284 212.433-107.888 150.789c-7.788 10.595-13.249 22.514-16.073 35.073s-2.953 25.512-0.381 38.118c2.572 12.605 7.795 24.616 15.369 35.344s17.352 19.963 28.773 27.176l47.738 29.271c11.398 7.234 24.244 12.259 37.778 14.774s27.473 2.468 40.99-0.138c13.636-2.447 26.615-7.393 38.17-14.551 11.558-7.158 21.466-16.384 29.141-27.138l163.264-227.514c13.094-18.176 20.083-39.554 20.083-61.424s-6.989-43.249-20.083-61.423l-152.286-212.437 107.887-150.788c7.787-10.586 13.197-22.524 15.902-35.098 2.709-12.574 2.658-25.523-0.149-38.080-4.612-25.161-19.703-47.625-42.005-62.532l-47.74-29.269c-17.626-10.995-38.447-16.721-59.674-16.41zM520.354 37.62c2.505-3.499 5.726-6.507 9.481-8.849 3.755-2.338 7.97-3.968 12.407-4.791 4.433-0.823 8.998-0.828 13.436-0.009s8.657 2.441 12.416 4.779l47.735 29.713c3.767 2.325 7.002 5.321 9.523 8.806 2.517 3.49 4.271 7.407 5.158 11.529s0.892 8.363 0.009 12.484c-0.879 4.122-2.628 8.038-5.141 11.533l-112.661 157.884c-6.302 8.555-9.673 18.679-9.673 29.047s3.371 20.493 9.673 29.052l158.012 221.746c5.133 7.241 7.868 15.722 7.868 24.393s-2.735 17.151-7.868 24.392l-165.649 226.183c-5.065 6.827-12.753 11.589-21.483 13.305-4.322 0.852-8.785 0.899-13.129 0.137s-8.482-2.316-12.173-4.572l-47.738-29.714c-3.818-2.284-7.102-5.258-9.659-8.745s-4.332-7.415-5.223-11.552c-0.89-4.137-0.877-8.398 0.039-12.529s2.717-8.051 5.295-11.524l114.092-158.772c6.302-8.556 9.673-18.682 9.673-29.049s-3.371-20.493-9.673-29.049l-158.011-221.75c-5.133-7.241-7.869-15.718-7.869-24.388 0-8.674 2.736-17.152 7.869-24.393l163.264-225.297z" />
<glyph unicode="&#xe902;" d="M512-21.333c-118.783 0.111-232.669 47.347-316.662 131.337-83.993 83.994-131.228 197.879-131.338 316.663v375.070c0 19.342 7.684 37.892 21.361 51.569s32.227 21.361 51.569 21.361h750.14c19.307-0.109 37.794-7.828 51.447-21.482s21.372-32.14 21.483-51.448v-375.070c-0.111-118.784-47.347-232.67-131.337-316.663-83.994-83.989-197.879-131.226-316.663-131.337zM293.209 645.458v-218.791c0-58.027 23.051-113.677 64.082-154.709 41.031-41.028 96.682-64.081 154.708-64.081s113.677 23.053 154.709 64.081c41.028 41.033 64.081 96.683 64.081 154.709v218.791h-437.581z" />
<glyph unicode="&#xe903;" d="M512-21.333c-118.783 0.111-232.669 47.347-316.662 131.337-83.993 83.994-131.228 197.879-131.338 316.663v375.070c0 19.342 7.684 37.892 21.361 51.569s32.227 21.361 51.569 21.361h750.14c19.307-0.109 37.794-7.828 51.447-21.482s21.372-32.14 21.483-51.448v-375.070c-0.111-118.784-47.347-232.67-131.337-316.663-83.994-83.989-197.879-131.226-316.663-131.337zM136.93 812.155c-2.763 0-5.413-1.097-7.367-3.052s-3.052-4.604-3.052-7.367v-375.070c0-102.238 40.614-200.29 112.907-272.58 72.293-72.294 170.344-112.909 272.582-112.909s200.29 40.614 272.58 112.909c72.294 72.29 112.909 170.342 112.909 272.58v375.070c0 2.763-1.097 5.413-3.051 7.367s-4.604 3.052-7.369 3.052h-750.14zM512 145.366c-74.573 0.111-146.059 29.781-198.789 82.513s-82.403 124.215-82.513 198.788v250.047c0.108 8.256 3.436 16.143 9.274 21.981s13.725 9.166 21.981 9.274h500.095c8.256-0.108 16.141-3.436 21.982-9.274 5.837-5.838 9.165-13.725 9.271-21.981v-250.047c-0.111-74.573-29.781-146.057-82.513-198.788s-124.215-82.402-198.788-82.513zM293.209 645.458v-218.791c0-58.027 23.051-113.677 64.082-154.709 41.031-41.028 96.682-64.081 154.708-64.081s113.677 23.053 154.709 64.081c41.028 41.033 64.081 96.683 64.081 154.709v218.791h-437.581z" />
<glyph unicode="&#xe904;" d="M512-74.666c-10.731-0.055-21.367 2.018-31.296 6.106-9.924 4.083-18.94 10.099-26.526 17.694l-419.683 420.011c-15.263 15.386-23.829 36.186-23.829 57.869 0 21.679 8.565 42.483 23.829 57.869l419.683 420.007c15.599 14.838 36.301 23.112 57.822 23.112s42.223-8.274 57.822-23.112l419.682-420.007c15.262-15.386 23.829-36.19 23.829-57.869 0-21.683-8.567-42.483-23.829-57.869l-419.682-420.011c-7.586-7.595-16.602-13.611-26.526-17.694-9.929-4.087-20.565-6.161-31.296-6.106zM467.699 298.676l44.301-44.335 43.831 44.335h-88.132zM467.699 555.348h90.931l-46.63 44.334-44.301-44.334z" />
<glyph unicode="&#xe905;" d="M512-74.666c-10.731-0.055-21.367 2.018-31.296 6.106-9.924 4.083-18.94 10.099-26.526 17.698l-419.683 420.006c-15.263 15.386-23.829 36.186-23.829 57.869 0 21.679 8.566 42.483 23.829 57.869l419.683 420.007c15.599 14.838 36.301 23.112 57.822 23.112s42.223-8.274 57.822-23.112l419.682-420.007c15.262-15.386 23.829-36.19 23.829-57.869 0-21.683-8.567-42.483-23.829-57.869l-419.682-420.006c-7.586-7.599-16.602-13.615-26.526-17.698-9.929-4.087-20.565-6.161-31.296-6.106zM512 858.688c-3.106-0.016-6.093-1.18-8.393-3.267l-419.683-420.007c-2.065-2.313-3.206-5.303-3.206-8.401 0-3.102 1.141-6.089 3.206-8.401l419.683-420.006c0.956-1.259 2.189-2.278 3.605-2.982 1.417-0.7 2.974-1.067 4.553-1.067 1.583 0 3.14 0.367 4.557 1.067 1.412 0.704 2.65 1.724 3.605 2.982l419.682 420.006c2.065 2.313 3.204 5.299 3.204 8.401 0 3.098-1.139 6.089-3.204 8.401l-419.682 420.007c-2.18 1.984-4.983 3.139-7.927 3.267zM512 169.873c-9.233 0.201-18.052 3.866-24.713 10.266l-128.704 128.802c-4.791 4.983-8.044 11.247-9.367 18.035s-0.661 13.811 1.906 20.233c2.659 6.349 7.13 11.772 12.853 15.59s12.444 5.862 19.322 5.879h257.406c6.912-0.009 13.666-2.065 19.413-5.909 5.743-3.849 10.223-9.31 12.868-15.701s3.337-13.427 1.988-20.211c-1.344-6.784-4.672-13.018-9.557-17.916l-128.704-128.802c-6.66-6.4-15.479-10.065-24.713-10.266zM467.699 298.676l44.301-44.335 43.831 44.335h-88.132zM640.704 485.346h-257.406c-6.878 0.017-13.599 2.061-19.322 5.879s-10.194 9.242-12.853 15.586c-2.568 6.422-3.23 13.448-1.906 20.236s4.576 13.050 9.367 18.033l128.704 128.803c6.669 6.336 15.514 9.867 24.713 9.867s18.044-3.532 24.713-9.867l128.704-128.803c4.885-4.895 8.213-11.129 9.557-17.914 1.348-6.785 0.657-13.818-1.988-20.21s-7.125-11.857-12.868-15.701c-5.747-3.849-12.501-5.905-19.413-5.909zM467.699 555.348h90.931l-46.63 44.335-44.301-44.335z" />
<glyph unicode="&#xe906;" d="M482.654-43.276c-9.425 3.874-17.988 9.583-25.19 16.794l-398.563 398.562c-14.495 14.596-22.629 34.338-22.629 54.912s8.134 40.311 22.629 54.912l398.563 398.561c14.814 14.080 34.47 21.932 54.912 21.932 20.437 0 40.098-7.851 54.912-21.932l398.562-398.561c14.494-14.601 22.63-34.338 22.63-54.912s-8.137-40.316-22.63-54.912l-398.562-398.562c-7.206-7.211-15.77-12.919-25.195-16.794-9.425-3.878-19.524-5.845-29.717-5.794-10.193-0.051-20.292 1.916-29.722 5.794zM489.536 193.976c6.272-6.025 14.575-9.472 23.266-9.66 8.695 0.188 16.998 3.635 23.27 9.66l208.969 208.969c6.165 6.174 9.63 14.541 9.63 23.266s-3.465 17.097-9.63 23.266l-208.969 208.971c-6.281 5.96-14.609 9.282-23.27 9.282-8.657 0-16.986-3.322-23.266-9.282l-208.969-208.971c-6.166-6.17-9.629-14.541-9.629-23.266s3.463-17.092 9.629-23.266l208.969-208.969z" />
<glyph unicode="&#xe907;" d="M512-53.333c-10.283-0.055-20.476 1.933-29.986 5.845-9.51 3.908-18.15 9.668-25.421 16.943l-402.135 402.138c-14.625 14.729-22.833 34.645-22.833 55.403 0 20.762 8.207 40.674 22.833 55.407l402.135 402.136c14.95 14.207 34.782 22.128 55.407 22.128 20.621 0 40.457-7.922 55.403-22.128l402.138-402.136c14.626-14.733 22.831-34.645 22.831-55.407 0-20.757-8.205-40.674-22.831-55.403l-402.138-402.138c-7.266-7.275-15.906-13.035-25.417-16.943-9.51-3.913-19.703-5.901-29.986-5.845zM512 840.304c-2.974-0.015-5.841-1.129-8.043-3.127l-402.137-402.138c-1.978-2.21-3.072-5.073-3.072-8.043 0-2.965 1.094-5.828 3.072-8.043l402.137-402.133c0.917-1.203 2.099-2.18 3.456-2.854 1.357-0.67 2.85-1.020 4.361-1.020 1.515 0 3.008 0.35 4.365 1.020 1.357 0.674 2.539 1.651 3.456 2.854l402.138 402.133c1.975 2.214 3.072 5.077 3.072 8.043 0 2.97-1.097 5.833-3.072 8.043l-402.138 402.138c-2.086 1.899-4.774 3.006-7.595 3.127zM512 180.8c-8.849 0.192-17.301 3.699-23.684 9.83l-212.684 212.685c-6.275 6.285-9.801 14.801-9.801 23.68 0 8.883 3.525 17.399 9.801 23.684l212.684 212.684c6.396 6.065 14.869 9.447 23.684 9.447 8.811 0 17.289-3.381 23.68-9.447l212.685-212.684c6.276-6.285 9.801-14.801 9.801-23.684 0-8.879-3.524-17.395-9.801-23.68l-212.685-212.685c-6.383-6.131-14.835-9.638-23.68-9.83zM346.676 426.996l165.324-165.321 165.321 165.321-165.321 165.324-165.324-165.324z" />
<glyph unicode="&#xe908;" d="M258.368 20.438c-78.234 52.275-139.21 126.575-175.217 213.504s-45.428 182.583-27.072 274.867c18.356 92.281 63.665 177.049 130.198 243.581s151.3 111.842 243.581 130.198c92.284 18.356 187.938 8.935 274.867-27.072s161.229-96.983 213.504-175.217c52.275-78.234 80.175-170.211 80.175-264.303-0.119-126.135-50.278-247.074-139.469-336.265s-210.129-139.354-336.265-139.469c-94.093 0-186.069 27.9-264.303 80.175zM390.629 206.929h264.083c20.429 0 40.021 8.115 54.464 22.562 14.447 14.443 22.562 34.035 22.562 54.464v264.083c-0.115 20.393-8.269 39.917-22.686 54.337-14.421 14.42-33.946 22.572-54.34 22.688h-264.083c-20.428 0-40.020-8.115-54.464-22.56s-22.56-34.036-22.56-54.464v-264.083c0-20.429 8.115-40.021 22.56-54.464 14.445-14.447 34.036-22.562 54.464-22.562z" />
<glyph unicode="&#xe909;" d="M522.667-64c-94.933 0-187.738 28.151-266.673 80.896-78.935 52.74-140.458 127.706-176.788 215.415s-45.836 184.222-27.315 277.333c18.521 93.109 64.236 178.637 131.366 245.766s152.657 112.845 245.766 131.366c93.111 18.521 189.623 9.015 277.333-27.315s162.675-97.853 215.415-176.788c52.745-78.935 80.896-171.74 80.896-266.673-0.119-127.266-50.726-249.289-140.719-339.281s-212.015-140.599-339.281-140.719zM522.667 829.023c-81.69 0-161.542-24.224-229.463-69.607s-120.859-109.889-152.12-185.359c-31.261-75.471-39.44-158.513-23.504-238.633s55.273-153.715 113.036-211.477c57.762-57.762 131.356-97.097 211.475-113.033s163.162-7.757 238.635 23.501c75.469 31.262 139.972 84.198 185.357 152.124 45.385 67.921 69.606 147.772 69.606 229.461-0.115 109.504-43.669 214.49-121.101 291.921s-182.417 120.984-291.921 121.102zM656.619 203.909h-267.905c-20.724 0-40.599 8.23-55.253 22.886-14.654 14.652-22.887 34.526-22.887 55.253v267.905c0 20.724 8.233 40.599 22.887 55.253s34.529 22.887 55.253 22.887h267.905c20.689-0.117 40.495-8.387 55.125-23.016s22.899-34.436 23.014-55.124v-267.905c0-20.727-8.23-40.602-22.886-55.253-14.652-14.656-34.526-22.886-55.253-22.886zM388.713 561.116c-2.961 0-5.8-1.176-7.893-3.27s-3.27-4.933-3.27-7.893v-267.905c0-2.961 1.176-5.803 3.27-7.893 2.093-2.095 4.933-3.273 7.893-3.273h267.905c2.961 0 5.803 1.178 7.893 3.273 2.095 2.091 3.273 4.932 3.273 7.893v267.905c0 2.961-1.178 5.8-3.273 7.893-2.091 2.094-4.932 3.27-7.893 3.27h-267.905z" />
<glyph unicode="&#xe90a;" d="M606.49 12.416c-19.831-0.32-38.985 7.211-53.282 20.949l-192.183 193.549h-168.045c-42.512-0.218-83.576 15.433-115.164 43.883-31.588 28.454-51.428 67.665-55.641 109.969s7.503 84.655 32.859 118.78c25.356 34.124 62.527 57.563 104.247 65.736 0 4.554 0 9.564 0 14.573-0.033 54.691 17.119 108.010 49.033 152.425s76.975 77.679 128.82 95.095c51.844 17.416 107.851 18.102 160.105 1.961s98.121-48.291 131.11-91.91c25.941 10.789 54.144 15.011 82.108 12.291s54.827-12.296 78.204-27.881c23.377-15.584 42.547-36.696 55.812-61.463s20.215-52.424 20.233-80.519c0-5.009 0-9.564 0-14.573 41.762-8.177 78.967-31.651 104.324-65.826 25.361-34.172 37.047-76.582 32.777-118.921-4.275-42.338-24.205-81.557-55.881-109.973s-72.823-43.981-115.375-43.648h-148.006v-138.897c0.119-14.81-4.139-29.325-12.241-41.724-8.102-12.395-19.686-22.123-33.301-27.955-9.609-4.203-20.028-6.225-30.511-5.922z" />
<glyph unicode="&#xe90b;" d="M606.49 12.416c-19.831-0.32-38.985 7.211-53.282 20.949l-192.183 193.549h-168.045c-42.512-0.218-83.576 15.433-115.164 43.883-31.588 28.454-51.428 67.665-55.641 109.969s7.503 84.655 32.859 118.78c25.356 34.124 62.527 57.563 104.247 65.736 0 4.554 0 9.564 0 14.573-0.033 54.691 17.119 108.010 49.033 152.425s76.975 77.679 128.82 95.095c51.844 17.416 107.851 18.102 160.105 1.961s98.121-48.291 131.11-91.91c25.941 10.789 54.144 15.011 82.108 12.291s54.827-12.296 78.204-27.881c23.377-15.584 42.547-36.696 55.812-61.463s20.215-52.424 20.233-80.519c0-5.009 0-9.564 0-14.573 41.762-8.177 78.967-31.651 104.324-65.826 25.361-34.172 37.047-76.582 32.777-118.921-4.275-42.338-24.205-81.557-55.881-109.973s-72.823-43.981-115.375-43.648h-148.006v-138.897c0.119-14.81-4.139-29.325-12.241-41.724-8.102-12.395-19.686-22.123-33.301-27.955-9.609-4.203-20.028-6.225-30.511-5.922zM192.98 500.16c-27.176 0-53.239-10.799-72.455-30.012-19.216-19.217-30.012-45.282-30.012-72.457s10.796-53.239 30.012-72.457c19.216-19.213 45.279-30.012 72.455-30.012h182.163c9.056-0.004 17.737-3.61 24.137-10.018l203.567-202.202c1.229-0.764 2.65-1.173 4.1-1.173 1.446 0 2.867 0.41 4.096 1.173 1.399 0.495 2.598 1.425 3.418 2.658 0.823 1.233 1.22 2.697 1.139 4.177v171.23c0.115 9.024 3.755 17.643 10.133 24.021 6.379 6.383 14.997 10.018 24.021 10.133h182.161c27.179 0 53.239 10.799 72.457 30.012 19.217 19.217 30.012 45.282 30.012 72.457s-10.795 53.239-30.012 72.457c-19.217 19.213-45.278 30.012-72.457 30.012h-6.831c-5.67-0.29-11.328 0.802-16.486 3.179-5.154 2.381-9.655 5.978-13.116 10.482-3.396 4.581-5.594 9.94-6.391 15.587-0.794 5.648-0.162 11.406 1.839 16.747 3.644 10.861 5.491 22.244 5.466 33.7 0 27.176-10.795 53.238-30.012 72.454s-45.278 30.012-72.457 30.012c-20.501 0.147-40.546-6.057-57.382-17.761-3.866-2.691-8.26-4.53-12.894-5.393s-9.395-0.733-13.973 0.384c-4.587 1.055-8.9 3.059-12.668 5.882-3.763 2.824-6.895 6.405-9.19 10.512-21.154 36.961-53.931 65.892-93.231 82.292s-82.919 19.347-124.069 8.384c-41.15-10.963-77.521-35.221-103.453-69s-39.971-75.182-39.93-117.767c-0.011-13.163 1.362-26.29 4.099-39.165 0.89-5.026 0.701-10.183-0.556-15.13s-3.551-9.569-6.731-13.56c-3.321-3.994-7.507-7.177-12.242-9.306s-9.893-3.153-15.083-2.991l-3.643 0.457z" />
<glyph unicode="&#xe90c;" d="M511.893-42.662c-18.735-0.085-37.146 4.894-53.282 14.413l-314.454 181.683c-16.176 9.237-29.623 22.583-38.98 38.69s-14.291 34.398-14.303 53.026v363.366c0.012 18.627 4.946 36.92 14.303 53.026s22.804 29.453 38.98 38.69l314.889 181.684c16.162 9.23 34.453 14.085 53.065 14.085s36.902-4.855 53.065-14.085l314.453-181.684c16.175-9.236 29.623-22.583 38.98-38.69s14.289-34.399 14.302-53.026v-363.366c-0.013-18.628-4.945-36.919-14.302-53.026s-22.805-29.453-38.98-38.69l-314.889-181.683c-15.962-9.566-34.244-14.554-52.847-14.413zM511.893 830.817c-7.040 0.023-13.961-1.783-20.092-5.241l-314.889-180.374c-6.215-3.588-11.38-8.742-14.982-14.95s-5.513-13.25-5.544-20.426v-363.366c0.031-7.177 1.943-14.221 5.544-20.429s8.768-11.362 14.982-14.95l314.889-181.683c6.135-3.443 13.056-5.252 20.092-5.252s13.952 1.809 20.087 5.252l314.893 179.063c6.212 3.588 11.379 8.742 14.98 14.95s5.513 13.252 5.547 20.425v364.68c0.201 7.398-1.6 14.712-5.214 21.17s-8.905 11.819-15.313 15.516l-314.893 180.374c-6.127 3.458-13.052 5.264-20.087 5.241zM511.893 147.755c-5.824-0.043-11.55 1.463-16.597 4.369l-213.129 123.157c-5.024 2.85-9.204 6.976-12.119 11.964-2.915 4.983-4.46 10.65-4.478 16.427v246.321c0.018 5.775 1.563 11.442 4.478 16.428s7.095 9.112 12.119 11.961l213.129 123.161c4.932 3.010 10.598 4.602 16.38 4.602 5.777 0 11.443-1.592 16.375-4.602l213.568-123.161c5.022-2.849 9.203-6.975 12.117-11.961s4.459-10.653 4.476-16.428v-246.321c-0.017-5.777-1.562-11.443-4.476-16.427-2.914-4.988-7.095-9.114-12.117-11.964l-213.568-123.157c-4.864-2.953-10.466-4.467-16.158-4.369zM331.082 322.449l180.811-103.94 180.809 103.94v208.764l-180.809 104.381-180.811-104.381v-208.764z" />
<glyph unicode="&#xe90d;" d="M458.266-24.119l-311.593 180.032c-16.029 9.152-29.353 22.379-38.625 38.336-9.272 15.962-14.161 34.086-14.173 52.544v360.066c0.012 18.457 4.901 36.584 14.173 52.544s22.597 29.186 38.625 38.338l312.028 180.032c16.013 9.146 34.138 13.957 52.582 13.957 18.441 0 36.565-4.811 52.578-13.957l311.595-180.032c16.030-9.152 29.355-22.378 38.626-38.338s14.161-34.086 14.174-52.544v-360.066c-0.013-18.458-4.902-36.582-14.174-52.544-9.271-15.957-22.596-29.184-38.626-38.336l-312.026-180.032c-15.812-9.476-33.929-14.421-52.365-14.281-18.564-0.085-36.809 4.847-52.8 14.281zM495.249 157.901c4.975-2.863 10.62-4.348 16.358-4.305 5.611-0.098 11.132 1.395 15.927 4.305l210.509 121.399c4.954 2.807 9.075 6.874 11.947 11.789s4.395 10.5 4.412 16.192v242.796c-0.017 5.692-1.54 11.278-4.412 16.192s-6.993 8.981-11.947 11.789l-210.509 121.398c-4.86 2.967-10.445 4.536-16.141 4.536s-11.281-1.569-16.145-4.536l-210.078-121.398c-4.951-2.808-9.072-6.875-11.945-11.789s-4.396-10.5-4.414-16.192v-242.796c0.018-5.692 1.541-11.277 4.414-16.192s6.993-8.981 11.945-11.789l210.078-121.399z" />
<glyph unicode="&#xe90e;" d="M253.627 39.975c-76.48 51.102-136.089 123.733-171.288 208.717-35.2 84.979-44.41 178.487-26.465 268.701s62.238 173.081 127.279 238.121c65.041 65.041 147.907 109.334 238.121 127.279s183.722 8.735 268.701-26.465c84.983-35.2 157.615-94.808 208.717-171.288s78.379-166.395 78.379-258.377c-0.115-123.307-49.148-241.532-136.341-328.725s-205.419-136.226-328.725-136.341c-91.982 0-181.897 27.277-258.377 78.379zM350.814 185.434c47.712-31.881 103.808-48.9 161.19-48.9 76.911 0.115 150.643 30.72 205.030 85.107 54.383 54.383 84.988 128.115 85.103 205.026 0 57.387-17.015 113.479-48.896 161.191s-77.193 84.899-130.21 106.859c-53.013 21.959-111.351 27.705-167.629 16.51-56.282-11.195-107.979-38.828-148.555-79.404s-68.208-92.273-79.403-148.551c-11.195-56.282-5.449-114.62 16.51-167.633s59.146-98.33 106.859-130.206z" />
<glyph unicode="&#xe90f;" d="M512-42.666c-92.825 0-183.566 27.524-260.748 79.095s-137.337 124.873-172.86 210.633c-35.523 85.76-44.817 180.126-26.708 271.168s62.809 174.669 128.446 240.306c65.638 65.638 149.265 110.337 240.306 128.446s185.408 8.815 271.168-26.708c85.76-35.523 159.061-95.678 210.633-172.86s79.095-167.922 79.095-260.748c-0.115-124.442-49.6-243.75-137.591-331.742s-207.3-137.476-331.742-137.591zM512 830.512c-79.872 0-157.952-23.685-224.364-68.060s-118.174-107.447-148.74-181.24c-30.566-73.794-38.564-154.993-22.981-233.333 15.582-78.336 54.045-150.293 110.524-206.775 56.479-56.478 128.437-94.938 206.777-110.519 78.336-15.586 159.535-7.586 233.327 22.98 73.796 30.566 136.866 82.325 181.244 148.74 44.373 66.411 68.058 144.491 68.058 224.363-0.115 107.071-42.701 209.723-118.409 285.434-75.712 75.711-178.364 118.295-285.436 118.411zM512 131.968c-58.287 0-115.262 17.284-163.725 49.668-48.463 32.38-86.235 78.404-108.54 132.254s-28.141 113.105-16.77 170.27c11.371 57.165 39.439 109.675 80.652 150.889s93.725 69.281 150.889 80.652c57.165 11.371 116.42 5.535 170.27-16.77s99.874-60.077 132.254-108.54c32.384-48.463 49.668-105.438 49.668-163.725-0.115-78.123-31.202-153.015-86.443-208.256s-130.133-86.327-208.256-86.443zM512 655.876c-45.333 0-89.649-13.443-127.342-38.629s-67.072-60.983-84.42-102.866c-17.348-41.882-21.888-87.971-13.044-132.429 8.844-44.463 30.674-85.303 62.73-117.359s72.897-53.888 117.361-62.733c44.459-8.845 90.547-4.305 132.429 13.043s77.679 46.729 102.865 84.42c25.186 37.696 38.63 82.010 38.63 127.343-0.115 60.753-24.303 118.988-67.26 161.948-42.961 42.96-101.197 67.146-161.95 67.261z" />
<glyph unicode="&#xe910;" d="M165.42 4.263c-20.108 0-39.392 7.987-53.609 22.208-14.218 14.217-22.206 33.502-22.206 53.606v693.17c0 20.108 7.988 39.392 22.206 53.609s33.502 22.206 53.609 22.206h693.17c20.070-0.113 39.287-8.138 53.483-22.331s22.217-33.411 22.332-53.484v-693.17c0-20.105-7.987-39.39-22.208-53.606-14.217-14.221-33.502-22.208-53.606-22.208h-693.17zM298.672 181.334h426.666c8.452 0.111 16.529 3.516 22.507 9.493s9.382 14.054 9.493 22.507v426.667c-0.111 8.453-3.516 16.528-9.493 22.505s-14.054 9.384-22.507 9.495h-426.666c-8.453-0.111-16.528-3.517-22.505-9.495s-9.385-14.053-9.495-22.505v-426.667c0.111-8.452 3.517-16.529 9.495-22.507s14.052-9.382 22.505-9.493z" />
<glyph unicode="&#xe911;" d="M862.084-0h-700.17c-20.311 0-39.789 8.068-54.151 22.43s-22.43 33.839-22.43 54.153v700.17c0 20.311 8.068 39.789 22.43 54.151s33.84 22.43 54.151 22.43h700.17c20.275-0.115 39.689-8.22 54.025-22.557s22.443-33.749 22.558-54.024v-700.17c0-20.314-8.068-39.791-22.43-54.153s-33.839-22.43-54.153-22.43zM161.914 787.693c-2.901 0-5.684-1.153-7.736-3.204s-3.204-4.835-3.204-7.736v-700.17c0-2.901 1.153-5.687 3.204-7.735 2.052-2.052 4.835-3.204 7.736-3.204h700.17c2.901 0 5.687 1.152 7.735 3.204 2.052 2.048 3.204 4.834 3.204 7.735v700.17c0 2.901-1.152 5.684-3.204 7.736-2.048 2.051-4.834 3.204-7.735 3.204h-700.17zM730.803 175.045h-437.606c-8.669 0.111-16.952 3.605-23.083 9.737s-9.625 14.413-9.738 23.083v437.606c0.113 8.669 3.608 16.952 9.738 23.083s14.413 9.625 23.083 9.738h437.606c8.67-0.113 16.951-3.608 23.083-9.738s9.626-14.413 9.737-23.083v-437.606c-0.111-8.67-3.605-16.951-9.737-23.083s-14.413-9.626-23.083-9.737zM326.017 240.683h371.967v371.967h-371.967v-371.967z" />
<glyph unicode="&#xe912;" d="M904.93 546.729h-272.866v272.868c-0.115 20.228-8.205 39.595-22.507 53.899s-33.668 22.39-53.897 22.505h-87.322c-20.262 0-39.693-8.049-54.023-22.378-14.328-14.328-22.378-33.762-22.378-54.025v-272.868h-272.868c-20.263 0-39.697-8.049-54.025-22.378-14.328-14.33-22.378-33.761-22.378-54.023v-87.322c0-10.031 1.976-19.968 5.816-29.235 3.84-9.271 9.467-17.694 16.562-24.789s15.517-12.723 24.787-16.559c9.269-3.84 19.205-5.82 29.238-5.82h272.868v-272.866c0-20.262 8.049-39.697 22.378-54.025s33.761-22.379 54.023-22.379h87.322c10.031 0 19.968 1.975 29.235 5.815 9.271 3.84 17.694 9.468 24.789 16.563s12.723 15.518 16.559 24.785c3.84 9.271 5.82 19.204 5.82 29.239v272.866h272.866c10.035 0 19.968 1.98 29.239 5.82 9.267 3.836 17.69 9.463 24.785 16.559s12.723 15.518 16.563 24.789c3.84 9.267 5.815 19.204 5.815 29.235v87.322c-0.115 20.224-8.201 39.595-22.507 53.897-14.302 14.304-33.668 22.39-53.897 22.505z" />
<glyph unicode="&#xe913;" d="M904.93 546.729h-272.866v272.868c-0.115 20.228-8.205 39.595-22.507 53.899s-33.673 22.39-53.897 22.505h-87.322c-20.262 0-39.693-8.049-54.023-22.378-14.328-14.328-22.378-33.762-22.378-54.025v-272.868h-272.868c-20.263 0-39.697-8.049-54.025-22.378-14.328-14.33-22.378-33.761-22.378-54.023v-87.322c0-10.031 1.976-19.968 5.816-29.235 3.84-9.271 9.467-17.694 16.562-24.789s15.517-12.723 24.787-16.559c9.269-3.84 19.205-5.82 29.238-5.82h272.868v-272.866c0-20.262 8.049-39.697 22.378-54.025s33.761-22.379 54.023-22.379h87.322c10.031 0 19.968 1.975 29.235 5.815 9.271 3.84 17.694 9.468 24.789 16.563s12.723 15.518 16.559 24.785c3.84 9.271 5.82 19.204 5.82 29.239v272.866h272.866c10.035 0 19.968 1.98 29.239 5.82 9.267 3.836 17.69 9.463 24.785 16.559s12.723 15.518 16.563 24.789c3.84 9.267 5.815 19.204 5.815 29.235v87.322c-0.115 20.224-8.201 39.595-22.507 53.897-14.302 14.304-33.668 22.39-53.897 22.505zM915.844 383.006c0-2.893-1.148-5.67-3.196-7.714-2.048-2.048-4.826-3.2-7.718-3.2h-338.355v-338.355c0-2.893-1.152-5.67-3.2-7.718-2.044-2.048-4.821-3.196-7.714-3.196h-87.322c-2.893 0-5.67 1.148-7.714 3.196-2.048 2.048-3.2 4.826-3.2 7.718v338.355h-338.355c-2.895 0-5.671 1.152-7.718 3.2-2.047 2.044-3.197 4.821-3.197 7.714v87.322c0 2.893 1.15 5.67 3.197 7.714 2.047 2.048 4.823 3.2 7.718 3.2h338.355v338.355c0 2.895 1.152 5.671 3.2 7.718 2.044 2.047 4.821 3.197 7.714 3.197h87.322c2.893 0 5.67-1.15 7.714-3.197 2.048-2.047 3.2-4.823 3.2-7.718v-338.355h338.355c2.893 0 5.67-1.152 7.718-3.2 2.048-2.044 3.196-4.821 3.196-7.714v-87.322z" />
<glyph unicode="&#xe914;" d="M896.358 208.448l-218.432 218.428 218.432 218.429c13.879 14.038 21.662 32.983 21.662 52.724s-7.782 38.686-21.662 52.724l-60.258 60.256c-13.982 13.984-32.947 21.839-52.723 21.839s-38.741-7.856-52.723-21.839l-218.432-218.429-218.428 218.429c-13.984 13.984-32.949 21.839-52.724 21.839s-38.741-7.856-52.724-21.839l-60.256-60.256c-6.924-6.924-12.416-15.144-16.163-24.19s-5.676-18.743-5.676-28.534c0-9.792 1.929-19.488 5.676-28.534s9.239-17.266 16.163-24.19l218.429-218.429-218.429-218.428c-13.984-13.986-21.839-32.951-21.839-52.727 0-19.772 7.856-38.737 21.839-52.723l60.256-60.254c6.924-6.925 15.144-12.416 24.19-16.166 9.047-3.746 18.743-5.675 28.534-5.675s19.488 1.929 28.534 5.675c9.047 3.75 17.266 9.242 24.19 16.166l218.428 218.428 218.432-218.428c6.921-6.925 15.142-12.416 24.188-16.166 9.050-3.746 18.743-5.675 28.535-5.675s19.486 1.929 28.535 5.675c9.045 3.75 17.263 9.242 24.188 16.166l60.258 60.254c13.879 14.037 21.662 32.986 21.662 52.723 0 19.742-7.782 38.69-21.662 52.727z" />
<glyph unicode="&#xe915;" d="M896.661 207.932l-218.735 218.731 218.735 218.732c13.897 14.057 21.692 33.029 21.692 52.797s-7.795 38.74-21.692 52.797l-60.339 60.34c-14.003 14.003-32.998 21.87-52.8 21.87s-38.793-7.867-52.796-21.87l-218.731-218.732-218.734 218.732c-14.003 14.003-32.995 21.87-52.797 21.87s-38.794-7.867-52.797-21.87l-60.34-60.34c-6.933-6.933-12.433-15.165-16.186-24.224s-5.684-18.768-5.684-28.574c0-9.805 1.932-19.514 5.684-28.573s9.252-17.29 16.186-24.224l218.732-218.732-218.732-218.731c-14.003-14.003-21.869-32.994-21.869-52.8 0-19.802 7.866-38.793 21.869-52.796l60.34-60.339c6.933-6.933 15.165-12.433 24.224-16.188 9.059-3.75 18.768-5.683 28.573-5.683s19.515 1.933 28.574 5.683c9.059 3.755 17.29 9.254 24.224 16.188l218.734 218.731 218.731-218.731c6.933-6.933 15.164-12.433 24.222-16.188 9.058-3.75 18.769-5.683 28.574-5.683s19.516 1.933 28.574 5.683c9.058 3.755 17.289 9.254 24.226 16.188l60.339 60.339c13.897 14.059 21.692 33.028 21.692 52.796 0 19.772-7.795 38.741-21.692 52.8zM791.066 87.254c-2.001-2.001-4.715-3.127-7.543-3.127s-5.542 1.126-7.543 3.127l-263.983 263.983-263.988-263.983c-2-2.001-4.713-3.127-7.543-3.127s-5.542 1.126-7.542 3.127l-60.34 60.339c-2 1.997-3.124 4.71-3.124 7.539s1.124 5.542 3.124 7.543l263.987 263.987-263.987 263.987c-2 2-3.124 4.713-3.124 7.542s1.124 5.542 3.124 7.543l60.34 60.34c2 2.001 4.713 3.124 7.542 3.124s5.542-1.124 7.543-3.124l263.988-263.985 263.983 263.985c2.001 2.001 4.715 3.124 7.543 3.124s5.542-1.124 7.543-3.124l60.339-60.34c2.001-2 3.123-4.713 3.123-7.543s-1.122-5.542-3.123-7.542l-263.987-263.987 263.987-263.987c2.001-2.001 3.123-4.715 3.123-7.543s-1.122-5.542-3.123-7.539l-60.339-60.339z" />
<glyph unicode="&#xe916;" d="M554.701-42.662h-85.333c-19.802 0-38.793 8.047-52.795 22.379-14.003 14.327-21.869 33.758-21.869 54.025v130.974c0 20.267 7.866 39.697 21.869 54.025 14.003 14.332 32.994 22.379 52.795 22.379h85.333c19.772-0.115 38.699-8.201 52.676-22.502 13.978-14.306 21.879-33.673 21.99-53.901v-130.974c0-10.035-1.929-19.968-5.683-29.239-3.75-9.271-9.25-17.694-16.183-24.785-6.933-7.095-15.164-12.723-24.226-16.563-9.058-3.84-18.765-5.815-28.574-5.815zM755.234 443.26c-6.622 0.013-13.218 0.892-19.627 2.62-9.502 2.543-18.411 7.027-26.18 13.18-7.774 6.148-14.251 13.845-19.046 22.622l-42.667 75.965c-9.779 17.57-12.399 38.377-7.287 57.911s17.545 36.217 34.594 46.434l110.933 65.488c17.161 10.186 37.559 13.012 56.747 7.859 9.506-2.544 18.415-7.026 26.185-13.178 7.774-6.152 14.251-13.846 19.042-22.622l42.667-75.53c9.783-17.571 12.403-38.378 7.292-57.911s-17.545-36.217-34.598-46.434l-110.933-65.489c-11.179-7.002-24.009-10.773-37.12-10.914zM268.41 443.26c-13.070 0.009-25.895 3.627-37.12 10.479l-110.933 65.488c-17.054 10.217-29.484 26.901-34.596 46.434s-2.493 40.34 7.289 57.911l42.667 75.53c9.905 17.538 26.211 30.334 45.333 35.573s39.495 2.495 56.64-7.631l110.933-65.488c17.012-10.142 29.451-26.715 34.638-46.15s2.708-40.177-6.905-57.759l-42.667-75.53c-4.794-8.777-11.272-16.469-19.043-22.622s-16.678-10.633-26.184-13.18c-6.388-1.873-12.984-2.901-19.627-3.055h-0.427zM823.074 115.819c-13.069 0.004-25.894 3.627-37.12 10.479l-110.933 65.489c-8.546 4.945-16.043 11.584-22.050 19.529-6.007 7.949-10.402 17.041-12.937 26.748-4.868 19.499-2.116 40.175 7.68 57.63l42.667 75.529c4.796 8.777 11.273 16.474 19.046 22.626 7.77 6.148 16.678 10.633 26.18 13.175 19.191 5.154 39.59 2.33 56.747-7.859l110.933-65.489c17.054-10.214 29.487-26.901 34.598-46.434s2.492-40.337-7.292-57.907l-42.667-75.533c-4.791-8.777-11.268-16.469-19.042-22.622-7.77-6.153-16.678-10.633-26.185-13.18-6.421-1.579-13.018-2.313-19.627-2.18zM200.57 115.819c-13.16-0.013-26.089 3.533-37.478 10.283-11.389 6.746-20.833 16.452-27.375 28.139l-42.667 75.529c-9.782 17.57-12.401 38.379-7.289 57.911s17.542 36.215 34.596 46.434l110.933 65.489c8.474 5.069 17.848 8.371 27.578 9.711s19.624 0.691 29.108-1.907c9.484-2.598 18.37-7.095 26.143-13.231s14.281-13.79 19.144-22.515l42.667-75.533c10.055-17.51 12.967-38.37 8.107-58.065-2.481-9.668-6.813-18.739-12.745-26.684s-13.347-14.605-21.815-19.593l-110.933-65.489c-11.349-6.929-24.332-10.551-37.547-10.479h-0.427zM554.701 612.22h-85.333c-19.802 0-38.793 8.049-52.795 22.378s-21.869 33.762-21.869 54.025v130.977c0 20.263 7.866 39.697 21.869 54.025s32.994 22.378 52.795 22.378h85.333c19.772-0.115 38.699-8.201 52.676-22.504s21.879-33.671 21.99-53.899v-130.977c0-10.033-1.929-19.968-5.683-29.238-3.75-9.269-9.25-17.692-16.183-24.787s-15.164-12.722-24.226-16.562c-9.058-3.84-18.765-5.815-28.574-5.815z" />
<glyph unicode="&#xe917;" d="M554.667-42.666h-85.333c-19.806 0-38.797 8.051-52.799 22.379s-21.869 33.762-21.869 54.025v130.978c0 20.262 7.866 39.697 21.869 54.025s32.993 22.379 52.799 22.379h85.333c19.767-0.115 38.694-8.201 52.672-22.507 13.978-14.302 21.879-33.668 21.995-53.897v-130.978c0-10.035-1.933-19.968-5.687-29.239-3.75-9.267-9.25-17.69-16.183-24.785s-15.164-12.723-24.222-16.563c-9.062-3.84-18.769-5.815-28.574-5.815zM469.333 175.629c-2.829 0-5.542-1.152-7.543-3.196-2.001-2.048-3.123-4.826-3.123-7.718v-130.978c0-2.893 1.122-5.67 3.123-7.718s4.715-3.196 7.543-3.196h85.333c2.829 0 5.542 1.148 7.539 3.196 2.001 2.048 3.127 4.826 3.127 7.718v130.978c0 2.893-1.126 5.67-3.127 7.718-1.997 2.044-4.71 3.196-7.539 3.196h-85.333zM755.2 443.256c-6.626 0.013-13.222 0.896-19.627 2.62-9.506 2.543-18.415 7.027-26.185 13.18-7.774 6.153-14.251 13.845-19.042 22.622l-42.667 75.967c-9.783 17.57-12.403 38.378-7.292 57.911s17.545 36.217 34.598 46.434l110.933 65.488c17.156 10.187 37.559 13.012 56.747 7.859 9.506-2.544 18.411-7.026 26.18-13.178 7.774-6.152 14.251-13.847 19.046-22.623l42.667-75.53c9.779-17.571 12.399-38.378 7.287-57.911s-17.54-36.217-34.594-46.434l-110.933-65.486c-11.183-7.006-24.013-10.778-37.12-10.918zM823.040 672.030c-1.673 0.509-3.452 0.509-5.12 0l-110.933-65.489c-2.423-1.458-4.186-3.834-4.902-6.614-0.721-2.779-0.337-5.737 1.062-8.23l42.667-75.53c0.631-1.294 1.532-2.432 2.637-3.336s2.389-1.553 3.763-1.903c1.271-0.593 2.654-0.896 4.053-0.896 1.395 0 2.778 0.303 4.053 0.896l110.933 65.488c2.419 1.458 4.181 3.835 4.902 6.614 0.717 2.779 0.337 5.737-1.062 8.23l-42.667 75.53c-0.636 1.294-1.536 2.432-2.641 3.336s-2.389 1.553-3.759 1.903h-2.987zM268.372 443.256c-13.070 0.009-25.895 3.627-37.12 10.479l-110.933 65.489c-17.053 10.217-29.484 26.901-34.596 46.434s-2.493 40.34 7.289 57.911l42.667 75.53c9.905 17.538 26.211 30.333 45.333 35.573s39.495 2.495 56.64-7.631l110.933-65.488c17.012-10.142 29.451-26.715 34.638-46.15s2.708-40.177-6.905-57.759l-42.667-75.532c-4.794-8.777-11.271-16.469-19.043-22.622s-16.678-10.633-26.184-13.175c-6.388-1.877-12.983-2.901-19.627-3.059h-0.427zM200.958 672.030h-2.987c-1.373-0.35-2.656-0.999-3.76-1.903s-2.005-2.042-2.64-3.336l-42.667-75.53c-0.577-1.303-0.876-2.717-0.876-4.147s0.299-2.845 0.876-4.148c0.342-1.405 0.976-2.717 1.86-3.848s1.996-2.052 3.26-2.701l110.933-65.488c1.273-0.593 2.655-0.896 4.053-0.896s2.78 0.303 4.053 0.896c1.974 0.452 3.762 1.521 5.12 3.055l42.667 75.53c1.399 2.493 1.781 5.451 1.062 8.23s-2.481 5.156-4.902 6.614l-110.933 65.488c-1.438 1.264-3.231 2.028-5.12 2.183zM823.040 115.815c-13.073 0.009-25.899 3.627-37.12 10.479l-110.933 65.489c-8.55 4.945-16.043 11.584-22.050 19.533-6.012 7.945-10.406 17.037-12.937 26.743-4.873 19.503-2.121 40.179 7.68 57.63l42.667 75.533c4.791 8.777 11.268 16.469 19.042 22.622 7.77 6.153 16.678 10.633 26.185 13.175 19.187 5.154 39.586 2.33 56.747-7.859l110.933-65.485c17.054-10.219 29.483-26.901 34.594-46.434s2.492-40.341-7.287-57.911l-42.667-75.529c-4.796-8.777-11.273-16.474-19.046-22.626-7.77-6.148-16.674-10.633-26.18-13.175-6.426-1.579-13.022-2.313-19.627-2.185zM755.2 344.589h-2.987c-1.374-0.35-2.658-0.998-3.763-1.903s-2.005-2.044-2.637-3.337l-42.667-75.529c-0.947-2.684-0.947-5.615 0-8.299 0.862-2.748 2.684-5.082 5.12-6.549l110.933-65.485c1.271-0.593 2.654-0.896 4.053-0.896 1.395 0 2.778 0.303 4.053 0.896 1.37 0.35 2.654 0.998 3.759 1.903s2.005 2.039 2.641 3.337l42.667 75.529c1.399 2.492 1.779 5.449 1.062 8.23-0.721 2.778-2.483 5.154-4.902 6.613l-110.933 65.489c-2.061 0.806-4.339 0.806-6.4 0zM200.532 115.815c-13.16-0.013-26.089 3.537-37.478 10.283s-20.833 16.452-27.375 28.139l-42.667 75.529c-9.782 17.57-12.401 38.379-7.289 57.911s17.542 36.215 34.596 46.434l110.933 65.489c8.475 5.073 17.848 8.371 27.579 9.715 9.73 1.34 19.623 0.691 29.107-1.907s18.37-7.095 26.143-13.235c7.774-6.135 14.281-13.79 19.144-22.515l42.667-75.529c10.055-17.515 12.967-38.374 8.107-58.069-2.481-9.668-6.813-18.739-12.745-26.684s-13.347-14.605-21.815-19.593l-110.933-65.489c-11.349-6.929-24.332-10.551-37.547-10.479h-0.427zM268.798 344.589c-1.67 0.508-3.45 0.508-5.12 0l-110.933-65.489c-2.422-1.459-4.183-3.836-4.902-6.613-0.719-2.782-0.337-5.739 1.062-8.23l42.667-75.529c1.425-2.479 3.748-4.284 6.464-5.018 2.716-0.738 5.606-0.346 8.043 1.088l110.933 65.485c2.434 1.468 4.256 3.797 5.12 6.549 0.578 1.306 0.876 2.718 0.876 4.147 0 1.434-0.299 2.846-0.876 4.151l-43.947 74.219c-0.635 1.293-1.535 2.432-2.64 3.337s-2.388 1.553-3.76 1.903h-2.987zM554.667 612.218h-85.333c-19.806 0-38.797 8.049-52.799 22.378s-21.869 33.762-21.869 54.025v130.977c0 20.263 7.866 39.697 21.869 54.025s32.993 22.378 52.799 22.378h85.333c19.767-0.115 38.694-8.201 52.672-22.505s21.879-33.67 21.995-53.899v-130.977c0-10.033-1.933-19.968-5.687-29.238-3.75-9.269-9.25-17.692-16.183-24.787s-15.164-12.722-24.222-16.562c-9.062-3.84-18.769-5.816-28.574-5.816zM469.333 830.512c-2.829 0-5.542-1.15-7.543-3.197s-3.123-4.823-3.123-7.718v-130.977c0-2.895 1.122-5.671 3.123-7.718s4.715-3.197 7.543-3.197h85.333c2.829 0 5.542 1.15 7.539 3.197 2.001 2.047 3.127 4.823 3.127 7.718v130.977c0 2.895-1.126 5.671-3.127 7.718-1.997 2.047-4.71 3.197-7.539 3.197h-85.333z" />
<glyph unicode="&#xe918;" d="M458.679-28.241l-314.512 181.722c-16.179 9.237-29.629 22.588-38.987 38.694-9.359 16.111-14.294 34.406-14.306 53.035v363.44c0.012 18.63 4.947 36.927 14.306 53.036s22.808 29.459 38.987 38.697l314.951 181.719c16.124 9.11 34.334 13.898 52.855 13.898s36.727-4.788 52.855-13.898l314.953-182.156c16.175-9.238 29.628-22.588 38.985-38.697 9.361-16.109 14.293-34.406 14.306-53.036v-363.439c-0.013-18.628-4.945-36.928-14.306-53.035-9.357-16.111-22.81-29.461-38.985-38.699l-314.953-181.717c-16.004-9.417-34.291-14.251-52.855-13.978-18.739-0.090-37.154 4.894-53.295 14.413zM495.313 101.402c5.12-2.718 10.803-4.215 16.597-4.369 5.487-0.576 11.029 0.175 16.162 2.185l257.293 148.518c4.992 2.884 9.152 7.019 12.062 11.998s4.471 10.628 4.535 16.397v297.041c-0.064 5.767-1.626 11.418-4.535 16.397s-7.070 9.114-12.062 11.997l-257.293 148.52c-5.009 2.793-10.645 4.259-16.38 4.259s-11.375-1.466-16.38-4.259l-256.854-148.52c-4.692-2.687-8.657-6.479-11.55-11.047s-4.626-9.773-5.050-15.163v-297.041c0.062-5.769 1.626-11.418 4.536-16.397s7.068-9.114 12.063-11.998l256.854-148.518zM489.583 460.25c6.609 4.416 14.379 6.771 22.327 6.771 10.658 0 20.881-4.233 28.416-11.767 7.539-7.539 11.772-17.758 11.772-28.42 0-7.945-2.355-15.718-6.771-22.327-4.416-6.605-10.692-11.759-18.035-14.801s-15.424-3.836-23.219-2.287c-7.799 1.553-14.959 5.38-20.578 10.999s-9.446 12.783-10.999 20.578c-1.549 7.795-0.755 15.876 2.287 23.219s8.192 13.619 14.801 18.035z" />
<glyph unicode="&#xe919;" d="M511.974-42.654c-18.739-0.090-37.154 4.894-53.295 14.413l-314.512 181.722c-16.179 9.237-29.629 22.588-38.987 38.694-9.359 16.111-14.294 34.406-14.306 53.035v363.44c0.012 18.63 4.947 36.927 14.306 53.036s22.808 29.459 38.987 38.697l314.951 181.719c16.124 9.11 34.334 13.898 52.855 13.898s36.727-4.788 52.855-13.898l314.953-182.156c16.175-9.238 29.628-22.588 38.985-38.697 9.361-16.109 14.293-34.406 14.306-53.036v-363.439c-0.013-18.628-4.945-36.928-14.306-53.035-9.357-16.111-22.81-29.461-38.985-38.699l-314.953-181.717c-16.004-9.417-34.291-14.251-52.855-13.978zM511.974 830.994c-7.236 0.033-14.34-1.932-20.531-5.679l-314.514-179.972c-6.216-3.589-11.383-8.745-14.985-14.953s-5.515-13.253-5.545-20.43v-363.437c0.031-7.181 1.943-14.225 5.545-20.433s8.769-11.362 14.985-14.95l314.949-181.722c6.14-3.443 13.060-5.252 20.096-5.252s13.956 1.809 20.092 5.252l314.953 179.098c6.217 3.593 11.383 8.747 14.985 14.955s5.517 13.252 5.547 20.429v364.75c0.201 7.399-1.6 14.715-5.214 21.174s-8.905 11.822-15.317 15.52l-314.953 180.409c-6.127 3.459-13.052 5.265-20.092 5.242zM511.974 97.127c-5.798 0.158-11.477 1.651-16.602 4.369l-256.851 148.523c-4.995 2.88-9.152 7.014-12.063 11.994s-4.474 10.633-4.536 16.397v297.043c0.423 5.39 2.157 10.595 5.050 15.163s6.858 8.36 11.549 11.046l256.851 148.521c5.009 2.793 10.65 4.259 16.384 4.259s11.371-1.466 16.38-4.259l257.289-148.521c4.996-2.883 9.152-7.018 12.066-11.997 2.91-4.979 4.471-10.63 4.535-16.397v-297.039c-0.064-5.769-1.626-11.422-4.535-16.397-2.914-4.979-7.070-9.114-12.066-11.998l-257.289-148.523c-5.137-2.010-10.679-2.756-16.162-2.185zM287.446 295.885l224.528-131.051 224.529 131.051v262.093l-224.529 127.99-224.528-127.99v-262.093zM511.974 321.221c-20.907 0-41.348 6.199-58.731 17.813-17.382 11.618-30.933 28.126-38.934 47.441-8.001 19.319-10.095 40.572-6.016 61.077 4.079 20.51 14.147 39.343 28.933 54.127 14.784 14.785 33.617 24.853 54.123 28.932s41.762 1.985 61.077-6.016c19.319-8.001 35.827-21.551 47.445-38.934 11.614-17.387 17.813-37.824 17.813-58.731 0-28.036-11.136-54.925-30.963-74.748-19.823-19.827-46.711-30.963-74.748-30.963zM511.974 467.119c-7.949 0-15.718-2.355-22.327-6.771s-11.759-10.692-14.801-18.039c-3.042-7.343-3.84-15.424-2.287-23.219 1.549-7.795 5.376-14.955 10.999-20.574 5.619-5.623 12.779-9.451 20.574-10.999 7.795-1.553 15.876-0.755 23.219 2.287 7.347 3.042 13.623 8.192 18.039 14.801s6.771 14.379 6.771 22.327c0 10.658-4.233 20.881-11.772 28.416-7.535 7.539-17.758 11.772-28.416 11.772z" />
<glyph unicode="&#xe91a;" d="M876.403 604.072h-750.14c-19.342 0-37.892 7.683-51.569 21.361s-21.361 32.227-21.361 51.569v83.349c0 19.342 7.684 37.892 21.361 51.569s32.227 21.361 51.569 21.361h750.14c19.307-0.109 37.794-7.828 51.447-21.482s21.372-32.14 21.483-51.448v-83.349c0-19.343-7.684-37.892-21.359-51.569-13.679-13.677-32.23-21.361-51.571-21.361zM876.403 20.63h-750.14c-19.342 0-37.892 7.684-51.569 21.363-13.677 13.675-21.361 32.226-21.361 51.567v83.349c0 19.341 7.684 37.892 21.361 51.571 13.677 13.675 32.227 21.359 51.569 21.359h750.14c19.307-0.111 37.794-7.829 51.447-21.483s21.372-32.137 21.483-51.447v-83.349c0-19.341-7.684-37.892-21.359-51.567-13.679-13.679-32.23-21.363-51.571-21.363zM876.403 312.35h-750.14c-9.577 0-19.061 1.886-27.909 5.551s-16.888 9.037-23.66 15.812c-6.772 6.771-12.144 14.81-15.809 23.659s-5.551 18.334-5.551 27.908v83.349c0 19.345 7.684 37.892 21.361 51.57s32.227 21.361 51.569 21.361h750.14c19.307-0.109 37.794-7.828 51.447-21.482 13.653-13.655 21.372-32.138 21.483-51.449v-83.349c0-9.574-1.886-19.059-5.551-27.908s-9.037-16.887-15.808-23.659c-6.775-6.775-14.814-12.147-23.663-15.812s-18.33-5.551-27.908-5.551z" />
<glyph unicode="&#xe91b;" d="M876.403 604.072h-750.14c-19.342 0-37.892 7.683-51.569 21.361s-21.361 32.227-21.361 51.569v83.349c0 19.342 7.684 37.892 21.361 51.569s32.227 21.361 51.569 21.361h750.14c19.307-0.109 37.794-7.828 51.447-21.482s21.372-32.14 21.483-51.448v-83.349c0-19.343-7.684-37.892-21.359-51.569-13.679-13.677-32.23-21.361-51.571-21.361zM126.263 770.77c-2.763 0-5.413-1.097-7.367-3.052s-3.052-4.604-3.052-7.367v-83.349c0-2.763 1.097-5.413 3.052-7.367s4.604-3.052 7.367-3.052h750.14c2.765 0 5.414 1.098 7.369 3.052s3.051 4.604 3.051 7.367v83.349c0 2.763-1.097 5.413-3.051 7.367s-4.604 3.052-7.369 3.052h-750.14zM876.403 20.63h-750.14c-19.342 0-37.892 7.684-51.569 21.363-13.677 13.675-21.361 32.226-21.361 51.567v83.349c0 19.341 7.684 37.892 21.361 51.571 13.677 13.675 32.227 21.359 51.569 21.359h750.14c19.307-0.111 37.794-7.829 51.447-21.483s21.372-32.137 21.483-51.447v-83.349c0-19.341-7.684-37.892-21.359-51.567-13.679-13.679-32.23-21.363-51.571-21.363zM126.263 187.328c-2.763 0-5.413-1.097-7.367-3.051s-3.052-4.604-3.052-7.369v-83.349c0-2.761 1.097-5.41 3.052-7.364s4.604-3.055 7.367-3.055h750.14c2.765 0 5.414 1.101 7.369 3.055s3.051 4.604 3.051 7.364v83.349c0 2.765-1.097 5.414-3.051 7.369s-4.604 3.051-7.369 3.051h-750.14zM876.403 312.35h-750.14c-9.577 0-19.061 1.886-27.909 5.551s-16.888 9.037-23.66 15.812c-6.772 6.771-12.144 14.81-15.809 23.659s-5.551 18.334-5.551 27.908v83.349c0 19.345 7.684 37.892 21.361 51.57s32.227 21.361 51.569 21.361h750.14c19.307-0.109 37.794-7.828 51.447-21.482 13.653-13.655 21.372-32.138 21.483-51.449v-83.349c0-9.574-1.886-19.059-5.551-27.908s-9.037-16.887-15.808-23.659c-6.775-6.775-14.814-12.147-23.663-15.812s-18.33-5.551-27.908-5.551zM126.263 479.049c-2.763 0-5.413-1.097-7.367-3.051s-3.052-4.604-3.052-7.369v-83.349c0-2.761 1.097-5.41 3.052-7.364s4.604-3.055 7.367-3.055h750.14c2.765 0 5.414 1.101 7.369 3.055s3.051 4.604 3.051 7.364v83.349c0 2.765-1.097 5.414-3.051 7.369s-4.604 3.051-7.369 3.051h-750.14z" />
<glyph unicode="&#xe91c;" d="M825.911-31.995c-10.146 0.021-20.173 2.202-29.41 6.391l-75.447 33.673c-8.922 3.725-17.015 9.178-23.817 16.047-6.805 6.865-12.186 15.010-15.829 23.962-3.644 8.956-5.483 18.539-5.41 28.207 0.077 9.664 2.061 19.221 5.841 28.117l17.050 37.935c17.57 37.184 26.684 77.798 26.684 118.921 0 41.126-9.114 81.741-26.684 118.925-30.635 66.27-46.502 138.407-46.502 211.416s15.868 145.147 46.502 211.417l16.623 37.936c4.177 8.969 10.099 17.018 17.417 23.677s15.889 11.796 25.207 15.111c8.845 3.693 18.338 5.594 27.921 5.594s19.076-1.902 27.917-5.594l75.447-33.673c9.037-4.074 17.143-9.958 23.812-17.29 6.673-7.331 11.772-15.954 14.976-25.334 7.437-18.018 7.437-38.246 0-56.264l-16.623-37.51c-17.485-37.207-26.551-77.812-26.551-118.922s9.067-81.715 26.551-118.92c30.75-66.24 46.677-138.389 46.677-211.418s-15.927-145.178-46.677-211.418l-16.623-37.935c-4.177-8.973-10.099-17.020-17.417-23.68-7.317-6.656-15.889-11.793-25.207-15.108-8.508-2.893-17.442-4.335-26.428-4.262zM531.375-31.995c-10.283 0.026-20.446 2.202-29.837 6.391l-75.445 33.673c-8.818 3.776-16.77 9.318-23.367 16.282s-11.7 15.202-14.995 24.213c-3.799 8.892-5.757 18.462-5.757 28.13 0 9.673 1.958 19.243 5.757 28.134l17.050 37.508c17.37 37.239 26.37 77.833 26.37 118.921 0 41.092-9 81.685-26.37 118.925-30.749 66.24-46.679 138.388-46.679 211.416s15.93 145.178 46.679 211.417l17.050 37.936c4.074 9.037 9.961 17.142 17.291 23.814s15.953 11.768 25.335 14.974c18.018 7.436 38.246 7.436 56.265 0l75.87-35.378c8.823-3.878 16.785-9.466 23.437-16.442 6.647-6.976 11.844-15.201 15.292-24.199 3.452-8.998 5.082-18.591 4.796-28.223-0.282-9.632-2.47-19.113-6.443-27.893l-16.623-37.51c-17.485-37.207-26.547-77.812-26.547-118.922s9.062-81.714 26.547-118.924c30.75-66.236 46.677-138.385 46.677-211.413s-15.927-145.178-46.677-211.418l-17.050-37.939c-4.075-9.037-9.958-17.139-17.289-23.812-7.334-6.673-15.953-11.767-25.335-14.976-8.077-2.897-16.567-4.48-25.148-4.685h-0.853zM238.545-31.995c-10.288-0.026-20.462 2.155-29.837 6.391l-75.445 33.673c-8.822 3.878-16.787 9.468-23.435 16.444s-11.846 15.202-15.295 24.201c-3.449 8.994-5.079 18.59-4.796 28.22 0.283 9.634 2.473 19.115 6.443 27.895l16.623 37.508c17.485 37.205 26.55 77.811 26.55 118.921 0 41.114-9.065 81.715-26.55 118.925-30.749 66.24-46.679 138.388-46.679 211.416s15.93 145.178 46.679 211.417l14.919 37.936c4.177 8.969 10.097 17.018 17.415 23.677s15.887 11.796 25.21 15.111c8.845 3.693 18.334 5.594 27.919 5.594s19.074-1.902 27.919-5.594l75.445-33.673c9.037-4.074 17.142-9.958 23.814-17.29s11.768-15.954 14.974-25.334c7.252-17.731 7.404-37.571 0.426-55.412l-17.050-37.936c-17.571-37.183-26.684-77.797-26.684-118.922s9.113-81.74 26.684-118.924c30.637-66.27 46.505-138.406 46.505-211.413 0-73.011-15.868-145.148-46.505-211.418l-16.623-37.939c-4.177-8.969-10.097-17.015-17.415-23.676s-15.887-11.793-25.21-15.113c-8.337-3.029-17.13-4.612-26.001-4.685z" />
<glyph unicode="&#xe91d;" d="M826.121-31.995c-10.146 0.021-20.173 2.202-29.414 6.391l-75.443 33.673c-8.922 3.725-17.015 9.178-23.821 16.047-6.801 6.865-12.181 15.010-15.825 23.962-3.648 8.956-5.483 18.539-5.41 28.207 0.073 9.664 2.061 19.221 5.841 28.117l17.050 37.935c17.57 37.184 26.684 77.798 26.684 118.921 0 41.126-9.114 81.741-26.684 118.925-30.635 66.27-46.502 138.407-46.502 211.416s15.868 145.147 46.502 211.417l16.623 37.936c4.177 8.969 10.099 17.018 17.417 23.677s15.885 11.796 25.207 15.111c8.845 3.693 18.334 5.594 27.921 5.594 9.583 0 19.072-1.902 27.917-5.594l75.447-33.673c9.037-4.074 17.139-9.958 23.812-17.29s11.767-15.954 14.976-25.334c7.437-18.018 7.437-38.246 0-56.264l-16.623-37.51c-17.485-37.207-26.551-77.812-26.551-118.922s9.067-81.715 26.551-118.92c30.746-66.24 46.677-138.389 46.677-211.418s-15.932-145.178-46.677-211.418l-16.627-37.935c-4.177-8.973-10.095-17.020-17.412-23.68-7.317-6.656-15.889-11.793-25.212-15.108-8.508-2.893-17.438-4.335-26.423-4.262zM783.492 820.491h-3.409c-2.295-0.991-4.122-2.82-5.116-5.115l-16.623-37.509c-26.957-58.246-40.922-121.66-40.922-185.843s13.965-127.597 40.922-185.841c21.227-45.291 32.23-94.694 32.23-144.713 0-50.014-11.004-99.418-32.23-144.708l-17.050-37.508c-0.87-2.325-0.828-4.894 0.124-7.189 0.947-2.295 2.731-4.143 4.992-5.171l75.447-33.677c2.197-0.815 4.617-0.815 6.818 0 2.295 0.994 4.126 2.82 5.116 5.116l17.050 37.935c26.948 58.176 40.909 121.519 40.909 185.63 0 64.115-13.961 127.458-40.909 185.63-21.227 45.291-32.23 94.694-32.23 144.711s11.004 99.421 32.23 144.71l16.623 37.51c0.811 2.347 0.811 4.899 0 7.246-1.109 2.21-2.906 4.004-5.116 5.115l-75.443 33.673h-3.413zM531.584-31.995c-10.283 0.026-20.446 2.202-29.837 6.391l-75.446 33.673c-8.818 3.776-16.77 9.318-23.367 16.282s-11.7 15.202-14.995 24.213c-3.799 8.892-5.757 18.462-5.757 28.13 0 9.673 1.958 19.243 5.757 28.134l17.050 37.508c17.37 37.239 26.371 77.833 26.371 118.921 0 41.092-9.001 81.685-26.371 118.925-30.749 66.24-46.679 138.388-46.679 211.416s15.93 145.178 46.679 211.417l17.050 37.936c4.074 9.037 9.957 17.142 17.291 23.814 7.33 6.672 15.953 11.768 25.331 14.974 18.018 7.436 38.251 7.436 56.265 0l75.874-35.378c8.819-3.878 16.785-9.466 23.433-16.442s11.849-15.201 15.296-24.199c3.447-8.998 5.082-18.591 4.796-28.223-0.282-9.632-2.47-19.113-6.443-27.893l-16.623-37.51c-17.485-37.207-26.551-77.812-26.551-118.922s9.067-81.714 26.551-118.924c30.75-66.236 46.677-138.385 46.677-211.413s-15.927-145.178-46.677-211.418l-17.050-37.935c-4.075-9.041-9.958-17.143-17.289-23.817-7.334-6.673-15.957-11.767-25.335-14.972-8.077-2.901-16.567-4.484-25.148-4.689h-0.853zM527.748 32.794c1.135-0.533 2.368-0.811 3.622-0.811s2.487 0.277 3.622 0.811c1.161 0.324 2.231 0.917 3.119 1.732s1.574 1.826 1.997 2.953l16.623 37.939c27.063 58.142 41.088 121.498 41.088 185.63 0 64.128-14.025 127.484-41.088 185.626-21.227 45.291-32.226 94.695-32.226 144.712s10.999 99.421 32.226 144.71l17.050 37.51c1.011 2.262 1.084 4.831 0.205 7.147s-2.637 4.19-4.894 5.214l-74.59 33.673c-2.351 0.812-4.902 0.812-7.249 0-2.295-0.991-4.122-2.82-5.116-5.115l-16.623-37.509c-27.072-58.215-41.097-121.641-41.097-185.843s14.025-127.628 41.097-185.842c21.227-45.291 32.23-94.694 32.23-144.708 0-50.018-11.004-99.422-32.23-144.713l-17.050-37.508c-0.533-1.135-0.806-2.372-0.806-3.622 0-1.254 0.273-2.492 0.806-3.622 0.324-1.161 0.922-2.231 1.732-3.119 0.815-0.887 1.83-1.574 2.957-1.997l74.594-33.246zM238.754-31.995c-10.288-0.026-20.462 2.155-29.837 6.391l-75.445 33.673c-8.822 3.878-16.787 9.468-23.435 16.444s-11.847 15.202-15.296 24.201c-3.448 8.998-5.079 18.59-4.796 28.22 0.282 9.634 2.473 19.115 6.443 27.895l16.624 37.508c17.484 37.205 26.549 77.811 26.549 118.921 0 41.114-9.065 81.715-26.549 118.925-30.749 66.24-46.679 138.388-46.679 211.416s15.93 145.178 46.679 211.417l14.918 37.936c4.177 8.969 10.097 17.018 17.415 23.677s15.887 11.796 25.21 15.111c8.845 3.693 18.334 5.594 27.919 5.594s19.074-1.902 27.919-5.594l75.445-33.673c9.037-4.074 17.142-9.958 23.814-17.29s11.768-15.954 14.974-25.334c7.252-17.731 7.405-37.571 0.426-55.412l-17.050-37.936c-17.571-37.183-26.685-77.797-26.685-118.922s9.113-81.74 26.685-118.924c30.637-66.27 46.504-138.406 46.504-211.413 0-73.011-15.867-145.148-46.504-211.418l-16.624-37.935c-4.177-8.973-10.097-17.020-17.415-23.68s-15.887-11.793-25.21-15.108c-8.337-3.034-17.13-4.617-26.001-4.689zM234.918 32.794c1.134-0.533 2.371-0.811 3.623-0.811s2.49 0.277 3.623 0.811c1.161 0.324 2.229 0.917 3.118 1.732s1.573 1.826 1.997 2.953l16.623 37.939c26.951 58.172 40.911 121.515 40.911 185.63 0 64.111-13.961 127.454-40.911 185.626-21.226 45.291-32.229 94.695-32.229 144.712s11.003 99.421 32.229 144.71l17.050 37.936c0.9 2.184 0.9 4.635 0 6.82-0.948 2.18-2.599 3.981-4.689 5.115l-75.872 33.673c-2.2 0.816-4.62 0.816-6.82 0-2.295-0.991-4.125-2.82-5.115-5.115l-17.902-37.509c-26.951-58.173-40.911-121.517-40.911-185.629s13.961-127.457 40.911-185.629c21.226-45.291 32.229-94.694 32.229-144.708 0-50.018-11.003-99.422-32.229-144.713l-16.623-37.508c-1.009-2.261-1.083-4.834-0.205-7.147 0.879-2.317 2.638-4.19 4.893-5.214l76.298-33.673z" />
<glyph unicode="&#xe91e;" d="M346.438-17.92c-72.775 0.38-144.64 16.205-210.844 46.43l-37.909 14.908c-8.963 4.173-17.006 10.091-23.66 17.404s-11.788 15.876-15.101 25.19c-3.69 8.841-5.591 18.321-5.591 27.9s1.9 19.063 5.591 27.9l33.65 75.392c3.662 9.165 9.148 17.485 16.124 24.465s15.298 12.467 24.459 16.132c9.162 3.665 18.973 5.427 28.837 5.184 9.865-0.239 19.577-2.483 28.548-6.592l37.909-17.037c37.181-17.476 77.757-26.534 118.839-26.534s81.659 9.058 118.839 26.534c66.223 30.613 138.313 46.468 211.268 46.468 72.96 0 145.045-15.855 211.273-46.468l37.909-16.614c8.939-4.139 16.943-10.048 23.531-17.37 6.592-7.322 11.627-15.902 14.805-25.225 3.793-8.887 5.751-18.449 5.751-28.113s-1.958-19.226-5.751-28.113l-33.651-75.392c-3.831-8.823-9.382-16.798-16.333-23.454-6.946-6.656-15.151-11.857-24.132-15.309-18.005-7.428-38.221-7.428-56.226 0l-37.483 16.614c-37.18 17.472-77.756 26.53-118.839 26.53-41.079 0-81.66-9.058-118.839-26.53-67.068-29.641-139.651-44.736-212.973-44.301zM346.438 273.856c-72.775 0.38-144.64 16.205-210.844 46.43l-37.909 17.037c-17.728 7.915-31.589 22.545-38.537 40.674s-6.416 38.276 1.48 56.013l33.65 77.952c7.917 17.726 22.547 31.587 40.677 38.535s38.276 6.416 56.013-1.48l37.484-17.038c37.213-17.358 77.777-26.354 118.839-26.354s81.625 8.996 118.839 26.354c66.249 30.532 138.325 46.342 211.268 46.342 72.947 0 145.024-15.811 211.273-46.342l37.909-17.038c9.024-4.008 17.101-9.875 23.706-17.213s11.588-15.987 14.63-25.382c3.793-8.883 5.751-18.449 5.751-28.113 0-9.66-1.958-19.226-5.751-28.109l-34.931-74.543c-3.772-8.811-9.31-16.759-16.269-23.351s-15.194-11.691-24.196-14.985c-8.883-3.793-18.449-5.751-28.109-5.751-9.664 0-19.23 1.958-28.113 5.751l-37.483 16.614c-37.184 17.472-77.76 26.53-118.839 26.53-41.084 0-81.66-9.058-118.839-26.53-66.675-29.466-138.805-44.557-211.697-44.301v-1.702zM346.438 569.037c-72.804 0.525-144.669 16.495-210.844 46.854l-37.909 16.612c-17.728 7.917-31.589 22.547-38.537 40.677s-6.416 38.276 1.48 56.013l33.65 75.392c3.831 8.8 9.374 16.751 16.306 23.39s15.114 11.834 24.072 15.282c8.957 3.448 18.511 5.081 28.105 4.804s19.037-2.459 27.781-6.418l37.909-16.612c37.181-17.472 77.757-26.531 118.839-26.531s81.659 9.059 118.839 26.531c66.193 30.727 138.291 46.646 211.268 46.646 72.981 0 145.079-15.919 211.273-46.646l37.909-16.612c17.651-8.005 31.437-22.641 38.374-40.739 6.933-18.097 6.46-38.199-1.318-55.951l-33.225-75.392c-4.173-8.963-10.091-17.006-17.404-23.66-7.309-6.655-15.876-11.788-25.19-15.101-8.836-3.69-18.321-5.591-27.9-5.591s-19.059 1.9-27.9 5.591l-37.909 17.038c-37.18 17.472-77.756 26.531-118.839 26.531-41.079 0-81.655-9.059-118.839-26.531-66.116-29.467-137.604-44.983-209.991-45.577z" />
<glyph unicode="&#xe91f;" d="M346.438-17.92c-72.775 0.38-144.641 16.205-210.844 46.43l-37.909 14.908c-8.963 4.173-17.006 10.091-23.66 17.404s-11.788 15.876-15.101 25.19c-3.69 8.841-5.591 18.321-5.591 27.9s1.9 19.063 5.591 27.9l33.65 75.392c3.662 9.165 9.148 17.485 16.124 24.465 6.976 6.976 15.298 12.467 24.46 16.132s18.972 5.427 28.836 5.184c9.865-0.239 19.577-2.483 28.548-6.592l37.909-17.037c37.181-17.476 77.757-26.534 118.839-26.534s81.659 9.058 118.839 26.534c66.223 30.613 138.313 46.468 211.268 46.468 72.96 0 145.045-15.855 211.273-46.468l37.909-16.614c8.939-4.139 16.943-10.048 23.531-17.37 6.592-7.322 11.627-15.902 14.805-25.225 3.793-8.887 5.751-18.449 5.751-28.113s-1.958-19.226-5.751-28.113l-33.651-75.392c-3.831-8.823-9.382-16.798-16.333-23.454-6.946-6.656-15.151-11.857-24.132-15.309-18.005-7.428-38.221-7.428-56.226 0l-37.483 16.614c-37.18 17.472-77.756 26.53-118.839 26.53-41.079 0-81.66-9.058-118.839-26.53-67.068-29.641-139.65-44.736-212.973-44.301zM161.151 195.055c-1.826 0.115-3.641-0.363-5.175-1.361-1.534-0.994-2.706-2.462-3.343-4.177l-33.65-73.69c-0.559-1.045-0.852-2.219-0.852-3.405 0-1.19 0.293-2.359 0.852-3.409 0.325-1.161 0.918-2.227 1.732-3.115s1.826-1.57 2.954-1.997l37.909-17.037c58.132-26.931 121.432-40.883 185.5-40.883s127.368 13.952 185.501 40.883c45.257 21.21 94.626 32.205 144.606 32.205 49.984 0 99.354-10.995 144.61-32.205l37.483-16.614c2.347-0.811 4.898-0.811 7.245 0 2.291 0.994 4.117 2.82 5.111 5.111l33.647 75.396c0.533 1.131 0.806 2.368 0.806 3.618 0 1.254-0.273 2.487-0.806 3.622-0.324 1.161-0.917 2.227-1.732 3.115s-1.826 1.57-2.953 1.997l-37.909 16.61c-58.133 26.931-121.434 40.883-185.502 40.883-64.064 0-127.364-13.952-185.498-40.883-45.257-21.21-94.628-32.205-144.609-32.205s-99.351 10.995-144.609 32.205l-37.484 16.614c-1.204 0.533-2.543 0.678-3.834 0.422v-1.702zM346.438 273.856c-72.775 0.38-144.641 16.205-210.844 46.43l-37.909 17.037c-17.728 7.915-31.589 22.545-38.537 40.674s-6.416 38.276 1.48 56.013l33.65 77.952c7.917 17.726 22.547 31.587 40.677 38.535s38.276 6.416 56.013-1.48l37.484-17.038c37.213-17.358 77.777-26.354 118.839-26.354s81.625 8.996 118.839 26.354c66.249 30.532 138.325 46.342 211.268 46.342 72.947 0 145.024-15.811 211.273-46.342l37.909-17.038c9.024-4.008 17.101-9.875 23.706-17.213s11.588-15.987 14.63-25.382c3.793-8.883 5.751-18.449 5.751-28.113 0-9.66-1.958-19.226-5.751-28.109l-34.931-74.543c-3.772-8.811-9.31-16.759-16.269-23.351s-15.194-11.691-24.196-14.985c-8.883-3.793-18.449-5.751-28.109-5.751-9.664 0-19.23 1.958-28.113 5.751l-37.483 16.614c-37.184 17.472-77.76 26.53-118.839 26.53-41.084 0-81.66-9.058-118.839-26.53-66.675-29.466-138.805-44.557-211.697-44.301v-1.702zM118.982 409.733c-1.009-2.261-1.082-4.826-0.204-7.142 0.878-2.313 2.636-4.186 4.89-5.21l37.909-17.037c58.132-26.931 121.432-40.883 185.5-40.883s127.368 13.952 185.501 40.883c45.257 21.21 94.626 32.205 144.606 32.205 49.984 0 99.354-10.995 144.61-32.205l37.483-16.614c1.135-0.529 2.372-0.806 3.622-0.806s2.487 0.277 3.622 0.806c1.156 0.324 2.227 0.917 3.115 1.732s1.57 1.826 1.997 2.953l33.647 75.396c0.533 1.131 0.806 2.368 0.806 3.618s-0.273 2.487-0.806 3.622c-0.324 1.161-0.917 2.227-1.732 3.115s-1.826 1.57-2.953 1.997l-37.909 16.61c-58.133 26.931-121.434 40.883-185.502 40.883-64.064 0-127.364-13.952-185.498-40.883-45.257-21.21-94.628-32.205-144.609-32.205s-99.351 10.995-144.609 32.205l-37.484 17.037c-1.133 0.533-2.369 0.811-3.621 0.811s-2.487-0.277-3.62-0.811c-1.161-0.324-2.228-0.917-3.116-1.732-0.888-0.811-1.571-1.822-1.996-2.953l-33.65-75.392zM346.438 569.037c-72.805 0.525-144.669 16.495-210.844 46.854l-37.909 16.612c-17.728 7.917-31.589 22.547-38.537 40.677s-6.416 38.276 1.48 56.013l33.65 75.392c3.831 8.8 9.374 16.751 16.306 23.39s15.114 11.834 24.072 15.282c8.957 3.448 18.511 5.081 28.105 4.804s19.037-2.459 27.781-6.418l37.909-16.612c37.181-17.472 77.757-26.531 118.839-26.531s81.659 9.059 118.839 26.531c66.193 30.727 138.291 46.646 211.268 46.646 72.981 0 145.079-15.919 211.273-46.646l37.909-16.612c17.651-8.005 31.437-22.641 38.374-40.739 6.933-18.097 6.46-38.199-1.318-55.951l-33.225-75.392c-4.173-8.963-10.091-17.006-17.404-23.66-7.309-6.655-15.876-11.788-25.19-15.101-8.836-3.69-18.321-5.591-27.9-5.591s-19.059 1.9-27.9 5.591l-37.909 17.038c-37.18 17.472-77.756 26.531-118.839 26.531-41.079 0-81.655-9.059-118.839-26.531-66.116-29.467-137.604-44.983-209.99-45.577zM118.982 703.211c-1.009-2.26-1.082-4.828-0.204-7.142s2.636-4.187 4.89-5.21l37.909-16.612c58.132-26.932 121.432-40.883 185.5-40.883s127.368 13.951 185.501 40.883c45.257 21.211 94.626 32.206 144.606 32.206 49.984 0 99.354-10.995 144.61-32.206l37.483-17.038c2.334-0.884 4.911-0.884 7.245 0 1.173 0.425 2.24 1.103 3.123 1.987s1.562 1.95 1.988 3.125l33.647 75.392c0.491 1.088 0.759 2.264 0.789 3.459s-0.179 2.382-0.614 3.493c-0.439 1.111-1.092 2.124-1.929 2.979-0.832 0.854-1.83 1.533-2.931 1.996l-37.909 17.89c-58.133 26.932-121.434 40.883-185.502 40.883-64.064 0-127.364-13.951-185.498-40.883-45.257-21.211-94.628-32.206-144.609-32.206s-99.351 10.995-144.609 32.206l-37.484 16.612c-2.26 1.009-4.828 1.082-7.142 0.204s-4.187-2.636-5.21-4.89l-33.65-76.244z" />
<glyph unicode="&#xe920;" d="M223.715 66.744h-69.141c-9.395 0-18.693 1.911-27.325 5.619-8.632 3.712-16.417 9.143-22.88 15.962-6.47 6.592-11.496 14.464-14.757 23.108s-4.684 17.873-4.18 27.098c9.758 186.402 88.195 362.586 220.181 494.572 131.985 131.986 308.172 210.423 494.575 220.181 9.297 0.355 18.573-1.17 27.268-4.485 8.7-3.315 16.636-8.352 23.339-14.807s12.032-14.199 15.671-22.765c3.639-8.566 5.513-17.777 5.504-27.084v-69.142c0.149-18.375-6.758-36.107-19.294-49.543s-29.743-21.554-48.085-22.681c-132.079-8.594-256.525-64.944-350.114-158.535-93.594-93.594-149.943-218.035-158.537-350.118-1.231-18.3-9.38-35.452-22.793-47.966s-31.087-19.452-49.431-19.413zM747.341-21.333h-70.464c-9.852 0.060-19.58 2.21-28.535 6.31-8.96 4.1-16.947 10.052-23.428 17.472-6.106 7.573-10.522 16.363-12.954 25.779-2.428 9.417-2.816 19.247-1.139 28.83 8.644 68.894 39.573 133.073 88.077 182.758 49.685 48.503 113.869 79.433 182.763 88.081 9.741 1.468 19.686 0.768 29.124-2.048s18.142-7.68 25.485-14.246c7.415-6.485 13.372-14.473 17.472-23.428 4.1-8.96 6.251-18.688 6.306-28.54v-70.46c-0.128-16.734-5.956-32.917-16.525-45.888s-25.246-21.952-41.604-25.459c-20.352-4.523-38.989-14.758-53.734-29.5-14.741-14.741-24.973-33.382-29.5-53.73-3.938-15.953-13.099-30.131-26.031-40.265-12.928-10.138-28.881-15.654-45.312-15.667zM485.747 22.708h-70.462c-9.44-0.026-18.781 1.92-27.426 5.709-8.645 3.793-16.403 9.348-22.778 16.307-6.531 7.078-11.541 15.42-14.722 24.508-3.182 9.092-4.466 18.735-3.774 28.339 9.911 127.872 65.198 247.987 155.884 338.675 90.688 90.688 210.807 145.975 338.675 155.886 9.604 0.666 19.238-0.631 28.326-3.811 9.084-3.18 17.429-8.177 24.521-14.686 6.963-6.375 12.518-14.133 16.307-22.778 3.793-8.645 5.739-17.987 5.713-27.427v-69.58c0.188-17.907-6.366-35.23-18.359-48.529-11.994-13.295-28.548-21.598-46.379-23.258-75.678-7.172-146.436-40.683-199.936-94.682-54.003-53.504-87.514-124.262-94.686-199.94-1.655-17.83-9.958-34.385-23.258-46.374-13.299-11.994-30.622-18.547-48.525-18.359h0.879z" />
<glyph unicode="&#xe921;" d="M223.715 66.744h-69.141c-9.395 0-18.693 1.911-27.325 5.619-8.632 3.712-16.417 9.143-22.88 15.962-6.47 6.592-11.496 14.464-14.757 23.108s-4.684 17.873-4.18 27.098c9.758 186.402 88.195 362.586 220.181 494.572 131.985 131.986 308.172 210.423 494.575 220.181 9.297 0.355 18.573-1.17 27.268-4.485 8.7-3.315 16.636-8.352 23.339-14.807s12.032-14.199 15.671-22.765c3.639-8.566 5.513-17.777 5.504-27.084v-69.142c0.149-18.375-6.758-36.107-19.294-49.543s-29.743-21.554-48.085-22.681c-132.079-8.594-256.525-64.944-350.114-158.535-93.594-93.594-149.943-218.035-158.538-350.118-1.23-18.3-9.379-35.452-22.793-47.966s-31.087-19.452-49.431-19.413zM805.914 784.142c-170.918-5.512-333.235-76.269-453.604-197.736-120.74-120.26-192.337-281.199-200.818-451.4l72.224-2.202c1.494-0.017 2.942 0.512 4.076 1.485 1.134 0.969 1.876 2.321 2.090 3.797 8.979 148.015 71.607 287.676 176.156 392.83 105.157 104.549 244.817 167.178 392.828 176.157 0.755 0.055 1.489 0.259 2.159 0.6 0.674 0.34 1.276 0.811 1.766 1.384s0.862 1.237 1.097 1.955c0.235 0.718 0.324 1.475 0.265 2.227l1.762 70.903zM747.341-21.333h-70.464c-9.852 0.060-19.58 2.21-28.535 6.31-8.96 4.1-16.947 10.052-23.428 17.472-6.106 7.573-10.522 16.363-12.954 25.779-2.428 9.417-2.816 19.247-1.139 28.83 8.644 68.894 39.573 133.073 88.077 182.758 49.685 48.503 113.869 79.433 182.763 88.081 9.741 1.468 19.686 0.768 29.124-2.048s18.142-7.68 25.485-14.246c7.415-6.485 13.372-14.473 17.472-23.428 4.1-8.96 6.251-18.688 6.306-28.54v-70.46c-0.128-16.734-5.956-32.917-16.525-45.888s-25.246-21.952-41.604-25.459c-20.352-4.523-38.989-14.758-53.734-29.5-14.741-14.741-24.973-33.382-29.5-53.73-3.938-15.953-13.099-30.131-26.031-40.265-12.928-10.138-28.881-15.654-45.312-15.667zM747.341 192.256c-39.411-38.874-64.943-89.63-72.666-144.448l73.545-3.085c3.964 0 6.165 4.407 7.049 7.049 7.347 32.346 23.684 61.961 47.121 85.436 23.369 23.578 53.026 39.932 85.436 47.121 3.081 0 7.044 3.524 7.044 7.049v70.46c-56.273-4.407-109.026-29.141-148.412-69.581h0.883zM485.747 22.708h-70.462c-9.44-0.026-18.781 1.92-27.427 5.709-8.645 3.793-16.403 9.348-22.778 16.307-6.531 7.078-11.541 15.42-14.723 24.508-3.181 9.092-4.465 18.735-3.773 28.339 9.91 127.872 65.198 247.987 155.884 338.675 90.688 90.688 210.807 145.975 338.675 155.886 9.604 0.666 19.238-0.631 28.326-3.811 9.084-3.18 17.429-8.177 24.521-14.686 6.963-6.375 12.518-14.133 16.307-22.778 3.793-8.645 5.739-17.987 5.713-27.427v-69.58c0.188-17.907-6.366-35.23-18.359-48.529-11.994-13.295-28.548-21.598-46.379-23.258-75.678-7.172-146.436-40.683-199.936-94.682-54.003-53.504-87.514-124.262-94.686-199.94-1.655-17.83-9.958-34.385-23.258-46.374-13.299-11.994-30.622-18.547-48.525-18.359h0.879zM845.986 526.073c-112.068-8.607-217.361-57.025-296.836-136.504-79.479-79.479-127.9-184.772-136.507-296.841l2.643-3.964h69.583c1.429-0.034 2.825 0.431 3.951 1.318 1.126 0.883 1.907 2.129 2.214 3.529 8.474 90.999 48.695 176.124 113.621 240.452 64.26 65.020 149.419 105.259 240.452 113.621 2.641 0 4.843 3.081 4.843 6.165v69.58l-3.964 2.642z" />
<glyph unicode="&#xe922;" d="M768.115-32h-511.999c-13.52 0.213-26.717 4.16-38.136 11.401-11.419 7.245-20.615 17.498-26.574 29.636s-8.448 25.685-7.193 39.151c1.255 13.461 6.205 26.317 14.304 37.146l221.013 275.627c11.114 13.879 25.202 25.079 41.228 32.777 16.030 7.701 33.579 11.695 51.358 11.695s35.332-3.994 51.358-11.695c16.026-7.697 30.118-18.897 41.229-32.777l221.013-275.627c8.098-10.829 13.052-23.684 14.306-37.146 1.254-13.466-1.237-27.012-7.194-39.151-5.961-12.139-15.155-22.391-26.573-29.636-11.422-7.241-24.619-11.187-38.14-11.401zM512.115 445.44c-17.638-0.247-35.106 3.456-51.127 10.837s-30.187 18.257-41.458 31.829l-221.013 279.893c-8.099 10.828-13.049 23.683-14.304 37.146s1.235 27.011 7.193 39.15c5.959 12.138 15.155 22.394 26.574 29.635s24.617 11.188 38.136 11.403h511.999c13.521-0.215 26.718-4.161 38.14-11.403 11.418-7.241 20.612-17.497 26.573-29.635 5.956-12.138 8.448-25.686 7.194-39.15s-6.208-26.318-14.306-37.146l-221.013-275.627c-10.974-14.118-25.007-25.562-41.045-33.468-16.038-7.91-33.66-12.075-51.541-12.186v-1.28z" />
<glyph unicode="&#xe923;" d="M768.013-32h-512.001c-13.52 0.213-26.717 4.16-38.137 11.401-11.419 7.245-20.615 17.498-26.574 29.636s-8.448 25.685-7.193 39.151c1.255 13.461 6.205 26.317 14.304 37.146l221.013 275.627c11.111 13.879 25.204 25.079 41.23 32.777 16.026 7.701 33.579 11.695 51.358 11.695s35.328-3.994 51.358-11.695c16.026-7.697 30.114-18.897 41.229-32.777l221.013-275.627c8.098-10.829 13.047-23.684 14.302-37.146 1.254-13.466-1.233-27.012-7.194-39.151-5.956-12.139-15.155-22.391-26.573-29.636-11.418-7.241-24.614-11.187-38.135-11.401zM512.013 341.334c-8.188-0.026-16.265-1.877-23.646-5.419-7.381-3.546-13.879-8.691-19.021-15.061l-221.014-274.347c-0.824-1.425-1.257-3.046-1.257-4.693s0.433-3.268 1.257-4.693c0.683-1.566 1.821-2.893 3.267-3.806s3.132-1.37 4.84-1.314h511.574c1.707-0.055 3.396 0.401 4.838 1.314 1.446 0.913 2.586 2.24 3.268 3.806 0.866 1.412 1.327 3.038 1.327 4.693s-0.461 3.281-1.327 4.693l-221.44 275.627c-5.265 6.14-11.819 11.042-19.191 14.357-7.377 3.319-15.39 4.975-23.475 4.843zM512.013 445.44c-17.638-0.247-35.11 3.456-51.132 10.837s-30.187 18.257-41.456 31.829l-221.013 279.893c-8.099 10.828-13.049 23.683-14.304 37.146s1.234 27.011 7.193 39.15c5.958 12.138 15.155 22.394 26.574 29.635s24.617 11.188 38.137 11.403h512.001c13.521-0.215 26.718-4.161 38.135-11.403s20.617-17.497 26.573-29.635c5.961-12.138 8.448-25.686 7.194-39.15s-6.204-26.318-14.302-37.146l-221.013-275.627c-10.974-14.118-25.007-25.562-41.045-33.468-16.038-7.91-33.66-12.075-51.541-12.186v-1.28zM256.012 821.334c-1.708 0.057-3.395-0.401-4.84-1.314s-2.583-2.239-3.267-3.806c-0.868-1.411-1.327-3.036-1.327-4.693s0.46-3.282 1.327-4.693l221.441-275.627c5.286-6.136 11.836-11.060 19.2-14.435 7.36-3.375 15.364-5.123 23.467-5.123 8.098 0 16.102 1.748 23.467 5.123s13.914 8.299 19.2 14.435l220.587 275.627c0.866 1.411 1.327 3.036 1.327 4.693s-0.461 3.282-1.327 4.693c-0.623 1.437-1.63 2.674-2.91 3.578s-2.782 1.437-4.343 1.542h-512.001z" />
<glyph unicode="&#xe924;" d="M993.007 91.439l-207.189 371.972-211.294 371.974c-6.319 11.29-15.428 20.668-26.406 27.19-10.974 6.522-23.433 9.956-36.117 9.956s-25.143-3.434-36.117-9.956c-10.978-6.522-20.087-15.901-26.406-27.19l-209.012-371.974-209.471-371.972c-6.332-11.255-9.664-24.030-9.66-37.030 0.003-12.996 3.342-25.766 9.679-37.022s15.451-20.599 26.423-27.089c10.972-6.49 23.416-9.903 36.079-9.886h836.968c12.663-0.017 25.109 3.396 36.079 9.886 10.974 6.49 20.087 15.834 26.423 27.089 6.34 11.255 9.677 24.026 9.681 37.022 0.004 13.001-3.328 25.775-9.66 37.030zM694.545 410.944l-182.545-325.124-182.545 325.124h365.090z" />
<glyph unicode="&#xe925;" d="M993.007 91.439l-207.189 371.972-211.294 371.974c-6.319 11.29-15.428 20.668-26.406 27.19-10.974 6.522-23.433 9.956-36.117 9.956s-25.143-3.434-36.117-9.956c-10.978-6.522-20.087-15.901-26.406-27.19l-209.012-371.974-209.471-371.972c-6.332-11.255-9.664-24.030-9.66-37.030 0.003-12.996 3.342-25.766 9.679-37.022s15.451-20.599 26.423-27.089c10.972-6.49 23.416-9.903 36.080-9.886h836.968c12.663-0.017 25.109 3.396 36.079 9.886 10.974 6.49 20.087 15.834 26.423 27.089 6.34 11.255 9.677 24.026 9.681 37.022 0.004 13.001-3.328 25.775-9.66 37.030zM516.109 799.312l178.436-318.096h-365.090l178.893 318.096c0.41 0.678 0.981 1.237 1.66 1.626s1.442 0.591 2.219 0.591c0.781 0 1.545-0.204 2.223-0.591s1.25-0.948 1.66-1.626zM694.545 410.944l-182.545-325.124-182.545 325.124h365.090zM93.516 50.684l-3.195 5.619 179.807 319.505 182.544-325.124h-359.156zM930.483 50.684h-359.155l182.545 325.124 179.806-319.505-3.196-5.619z" />
<glyph unicode="&#xe926;" d="M972.962 463.002c-9.34 116.569-62.17 225.364-148.002 304.785s-198.396 123.664-315.337 123.942c-616.915-25.524-616.915-904.61 0-930.133 116.941 0.277 229.504 44.518 315.337 123.942 85.833 79.42 138.662 188.215 148.002 304.785 2.308 24.171 2.308 48.508 0 72.678zM509.623 610.526c48.764 0 95.531-19.371 130.014-53.852 34.479-34.481 53.85-81.248 53.85-130.011s-19.371-95.531-53.85-130.010c-34.483-34.483-81.25-53.854-130.014-53.854s-95.529 19.371-130.010 53.854c-34.481 34.479-53.852 81.246-53.852 130.010s19.371 95.53 53.852 130.011c34.481 34.481 81.246 53.852 130.010 53.852z" />
<glyph unicode="&#xe927;" d="M978.479 463.339c-9.425 117.639-62.741 227.432-149.359 307.582-86.622 80.151-200.218 124.798-318.229 125.079-622.576-25.759-622.576-912.909 0-938.667 118.012 0.282 231.607 44.928 318.229 125.077 86.618 80.154 139.934 189.943 149.359 307.584 2.325 24.393 2.325 48.951 0 73.344zM510.891 22.823c-107.071 0.115-209.723 42.701-285.434 118.409-75.711 75.712-118.295 178.364-118.411 285.436-6.112 305.612 351.89 509.063 611.226 346.652-53.559 14.634-109.76 16.781-164.275 6.276-54.519-10.505-105.899-33.382-150.183-66.87s-80.292-76.692-105.251-126.286c-24.959-49.594-38.202-104.255-38.711-159.773 0.527-55.471 13.766-110.080 38.7-159.633s60.899-92.727 105.129-126.208c44.23-33.476 95.55-56.367 150.010-66.91 54.464-10.543 110.613-8.457 164.143 6.097-62.528-37.444-134.054-57.216-206.942-57.19zM510.891 612.218c49.212 0 96.405-19.549 131.204-54.347s54.345-81.992 54.345-131.204c0-49.212-19.546-96.405-54.345-131.204s-81.993-54.345-131.204-54.345c-49.212 0-96.407 19.546-131.204 54.345s-54.346 81.993-54.346 131.204c0 49.212 19.549 96.407 54.346 131.204s81.993 54.347 131.204 54.347zM456.755 181.304c36.676-8.090 74.701-7.851 111.275 0.708 36.57 8.559 70.754 25.212 100.036 48.738 29.278 23.522 52.907 53.321 69.141 87.189s24.661 70.95 24.661 108.51c0 37.559-8.427 74.641-24.661 108.509-16.235 33.87-39.863 63.665-69.141 87.189-29.282 23.525-63.467 40.18-100.036 48.737-36.574 8.558-74.598 8.8-111.275 0.709 44.331 29.435 95.817 46.298 148.971 48.792s105.993-9.471 152.887-34.625c46.895-25.153 86.089-62.553 113.417-108.216 27.324-45.664 41.754-97.882 41.754-151.096s-14.43-105.434-41.754-151.095c-27.328-45.666-66.522-83.063-113.417-108.22-46.895-25.152-99.733-37.12-152.887-34.624s-104.64 19.358-148.971 48.794z" />
<glyph unicode="&#xe928;" d="M321.116 698.884c16.083 29.943 36.531 57.545 60.826 81.841 48.931 48.93 111.271 82.252 179.137 95.751 67.87 13.5 138.214 6.571 202.146-19.91 63.927-26.481 118.571-71.324 157.013-128.859s58.961-125.178 58.961-194.375c-0.085-92.764-36.971-181.702-102.566-247.298-35.482-35.482-77.794-62.562-123.849-79.966-18.398-46.959-46.391-90.108-82.743-126.46-69.197-69.197-163.017-108.109-260.871-108.198-72.994 0-144.349 21.645-205.042 62.199-60.692 40.55-107.997 98.193-135.93 165.632-27.934 67.435-35.243 141.645-21.002 213.235s49.391 137.354 101.006 188.969c47.732 47.732 107.563 81.384 172.915 97.439z" />
<glyph unicode="&#xe929;" d="M990.374 512.548c1.83 96.842-34.803 190.461-101.875 260.339s-159.113 110.314-255.949 112.447c-62.494-0.492-123.759-17.423-177.638-49.090-53.882-31.667-98.479-76.957-129.312-131.318-69.132-15.035-132.492-49.609-182.545-99.609-70.013-70.013-109.346-164.971-109.346-263.983 0-99.017 39.333-193.975 109.346-263.987s164.972-109.346 263.985-109.346c99.012 0 193.971 39.334 263.983 109.346 23.39 23.258 43.524 49.574 59.853 78.234 75.767 23.885 141.871 71.458 188.582 135.714 46.711 64.26 71.569 141.811 70.916 221.254zM632.55 204.314c-79.868 1.907-155.708 35.443-210.861 93.239-55.152 57.796-85.1 135.125-83.264 214.995 0 5.985 0 11.543 0 17.1 0.224 4.211-0.383 8.425-1.786 12.4s-3.577 7.636-6.396 10.773c-2.819 3.136-6.227 5.686-10.031 7.505s-7.93 2.871-12.14 3.095c-4.211 0.224-8.424-0.382-12.4-1.786s-7.636-3.577-10.772-6.395c-3.136-2.819-5.687-6.227-7.505-10.031s-2.87-7.929-3.095-12.14c0-6.84 0-13.68 0-20.52-1.718-96.842 35.025-190.415 102.178-260.213 67.154-69.794 159.237-110.123 256.073-112.145h7.693c-5.060-6.566-10.483-12.847-16.243-18.812-50.91-50.074-117.585-80.977-188.698-87.454-71.112-6.481-142.275 11.861-201.396 51.908s-102.551 99.328-122.91 167.774c-20.36 68.442-16.394 141.824 11.225 207.676 27.619 65.85 77.186 120.105 140.278 153.548s135.818 44.007 205.818 29.9c69.999-14.108 132.958-52.017 178.172-107.287s69.897-124.489 69.85-195.895c0-8.503 3.379-16.661 9.391-22.673 6.016-6.012 14.17-9.391 22.673-9.391s16.661 3.379 22.673 9.391c6.012 6.012 9.391 14.17 9.391 22.673 0 98.496-38.98 192.995-108.429 262.845s-163.721 109.374-262.22 109.939c26.896 33.257 60.808 60.16 99.314 78.784 38.502 18.624 80.649 28.509 123.418 28.947 79.979-2.127 155.844-35.924 210.918-93.962 55.070-58.039 84.847-135.57 82.778-215.552 1.609-79.648-28.386-156.695-83.422-214.295-55.036-57.596-130.637-91.063-210.274-93.082v-0.858z" />
<glyph unicode="&#xe92a;" d="M930.569 515.423c-7.172 12.721-17.634 23.28-30.289 30.571s-27.038 11.046-41.638 10.871h-311.053v268.659c-0.068 17.897-6.029 35.273-16.964 49.443-10.931 14.17-26.227 24.346-43.52 28.954s-35.622 3.392-52.156-3.46c-16.534-6.852-30.351-18.958-39.316-34.448l-302.956-446.813c-7.148-12.668-10.858-26.987-10.758-41.532 0.099-14.549 4.003-28.813 11.323-41.387 7.321-12.57 17.803-23.006 30.406-30.268 12.603-7.266 26.887-11.106 41.434-11.14h311.053v-268.659c0.282-17.647 6.357-34.709 17.289-48.567s26.112-23.74 43.209-28.122c6.989-1.886 14.195-2.846 21.436-2.859 14.251 0.017 28.245 3.819 40.546 11.017 12.305 7.198 22.477 17.532 29.474 29.948l302.959 446.814c6.942 12.382 10.547 26.355 10.462 40.55-0.081 14.195-3.853 28.126-10.94 40.428z" />
<glyph unicode="&#xe92b;" d="M930.569 515.423c-7.172 12.721-17.634 23.28-30.289 30.571s-27.038 11.046-41.638 10.871h-311.053v268.659c-0.068 17.897-6.033 35.273-16.964 49.443s-26.227 24.346-43.52 28.954c-17.293 4.608-35.622 3.392-52.156-3.46s-30.351-18.958-39.316-34.448l-302.956-446.813c-7.149-12.668-10.858-26.987-10.758-41.532 0.099-14.549 4.003-28.813 11.323-41.387 7.321-12.57 17.803-23.006 30.406-30.268 12.603-7.266 26.887-11.106 41.434-11.14h311.053v-268.659c0.282-17.647 6.357-34.709 17.289-48.567s26.112-23.74 43.209-28.122c6.989-1.886 14.195-2.846 21.436-2.859 14.251 0.017 28.245 3.819 40.546 11.017 12.305 7.198 22.477 17.532 29.474 29.948l302.959 446.814c6.942 12.382 10.547 26.355 10.462 40.55-0.081 14.195-3.853 28.126-10.94 40.428zM165.082 366.328c-2.087-0.009-4.142 0.512-5.974 1.51s-3.382 2.445-4.506 4.207c-0.96 1.835-1.461 3.878-1.461 5.952s0.501 4.117 1.461 5.956l302.956 446.333c0.631 1.329 1.562 2.494 2.718 3.403 1.161 0.909 2.509 1.538 3.951 1.837h2.859c2.227-0.352 4.245-1.524 5.658-3.286 1.408-1.763 2.108-3.988 1.963-6.24v-459.199l-309.623-0.474zM869.12 467.789l-302.955-446.336c-1.109-1.847-2.786-3.29-4.779-4.113-1.993-0.819-4.198-0.973-6.289-0.435-2.086 0.533-3.947 1.732-5.299 3.409-1.357 1.677-2.129 3.746-2.21 5.901v459.2h311.053c2.086 0.004 4.139-0.516 5.973-1.515 1.83-0.998 3.383-2.445 4.506-4.203 0.96-1.839 1.459-3.883 1.459-5.956s-0.499-4.113-1.459-5.952z" />
<glyph unicode="&#xe92c;" d="M993.327 545.311c-5.321 16.789-15.885 31.43-30.14 41.775s-31.45 15.848-49.058 15.702h-247.561l-76.484 233.528c-5.431 16.727-16.021 31.304-30.251 41.642s-31.364 15.906-48.951 15.906c-17.587 0-34.722-5.568-48.947-15.906-14.229-10.338-24.819-24.916-30.251-41.642l-76.486-233.528h-247.558c-17.635 0.1-34.847-5.401-49.155-15.711s-24.974-24.896-30.46-41.656c-5.486-16.761-5.51-34.828-0.067-51.605s16.070-31.39 30.351-41.737l200.49-145.276-76.485-235.337c-6.212-16.905-6.778-35.366-1.612-52.617s15.784-32.363 30.264-43.068c14.479-10.709 32.039-16.431 50.047-16.316s35.492 6.067 49.833 16.96l200.036 147.537 200.038-147.537c14.229-10.522 31.437-16.239 49.131-16.32s34.953 5.478 49.276 15.868c14.323 10.389 24.964 25.071 30.383 41.916 5.414 16.841 5.325 34.974-0.256 51.763l-76.489 235.341 200.491 147.085c14.298 10.304 24.913 24.917 30.289 41.698s5.231 34.842-0.418 51.533z" />
<glyph unicode="&#xe92d;" d="M998.285 546.233c-5.363 16.919-16.004 31.674-30.37 42.099s-31.693 15.971-49.442 15.824h-249.481l-77.077 235.34c-5.474 16.856-16.145 31.547-30.485 41.965-14.336 10.418-31.603 16.030-49.327 16.030s-34.995-5.611-49.331-16.030c-14.34-10.418-25.011-25.109-30.485-41.965l-77.078-235.34h-249.478c-17.772 0.101-35.117-5.443-49.536-15.832s-25.167-25.089-30.696-41.98c-5.529-16.89-5.552-35.098-0.068-52.003 5.485-16.909 16.195-31.633 30.587-42.061l202.045-146.402-77.078-237.167c-6.261-17.033-6.831-35.635-1.625-53.022 5.206-17.382 15.907-32.614 30.498-43.405 14.592-10.786 32.288-16.555 50.435-16.439s35.768 6.114 50.22 17.092l201.591 148.681 201.587-148.681c14.336-10.603 31.68-16.363 49.51-16.444s35.226 5.517 49.66 15.987c14.434 10.47 25.156 25.263 30.618 42.24 5.457 16.973 5.367 35.247-0.26 52.169l-77.077 237.163 202.044 148.228c14.409 10.381 25.105 25.109 30.524 42.018 5.419 16.913 5.274 35.114-0.422 51.935zM496.593 819.883c0.819 3.25 2.701 6.134 5.346 8.195 2.641 2.060 5.897 3.179 9.25 3.179 3.349 0 6.609-1.119 9.25-3.179 2.645-2.060 4.527-4.944 5.342-8.195l70.238-216.184h-168.751l69.325 216.184zM405.377 535.287h214.36l66.133-203.869-173.769-125.423-173.314 125.879 66.589 203.412zM97.064 507.465c-2.555 1.954-4.439 4.655-5.391 7.728s-0.925 6.365 0.077 9.422c1.002 3.056 2.93 5.725 5.516 7.638s5.704 2.973 8.919 3.035h228.042l-53.818-160.998-183.346 133.175zM270.376 30.4c-2.624-2.189-5.932-3.388-9.35-3.388s-6.726 1.199-9.35 3.388c-2.737 1.847-4.769 4.565-5.763 7.71-0.994 3.149-0.892 6.541 0.291 9.621l70.237 215.731 136.824-99.883-182.889-133.18zM777.997 47.732c1.101-3.157 1.148-6.592 0.137-9.779-1.011-3.191-3.025-5.969-5.747-7.919-2.718-1.95-5.995-2.965-9.34-2.901-3.345 0.068-6.579 1.212-9.22 3.268l-182.434 133.18 136.823 99.883 69.781-215.731zM927.595 507.921l-182.434-133.632-53.82 161.454h228.045c3.213-0.062 6.332-1.123 8.917-3.035s4.514-4.582 5.517-7.638c1.003-3.056 1.028-6.349 0.077-9.421s-2.837-5.773-5.389-7.727h-0.913z" />
<glyph unicode="&#xe92e;" d="M753.387 568.932c5.103 3.102 9.331 7.453 12.284 12.643s4.535 11.046 4.599 17.018v186.176c0.009 13.358-3.499 26.482-10.163 38.059s-16.252 21.198-27.81 27.899c-11.554 6.702-24.666 10.249-38.025 10.285s-26.487-3.439-38.080-10.078l-144.196-83.049-144.193 83.049c-11.591 6.639-24.724 10.115-38.081 10.078s-26.471-3.583-38.025-10.285c-11.555-6.702-21.145-16.323-27.809-27.899s-10.169-24.701-10.162-38.059v-186.176c0.062-5.971 1.644-11.828 4.599-17.018s7.182-9.541 12.285-12.643l224.048-129.136c5.274-3.034 11.26-4.608 17.34-4.561 5.948-0.107 11.802 1.476 16.883 4.561l224.508 129.136zM964.203 448.922l-161.079 91.262c-5.154 3.145-11.072 4.808-17.109 4.808s-11.959-1.664-17.114-4.808l-224.047-127.768c-5.316-2.901-9.737-7.198-12.791-12.42-3.055-5.227-4.629-11.187-4.548-17.237v-258.731c-0.081-6.054 1.493-12.011 4.548-17.237s7.475-9.523 12.791-12.425l161.075-91.26c11.524-6.874 24.687-10.5 38.101-10.5 13.419 0 26.581 3.627 38.106 10.5 11.682 6.635 21.389 16.265 28.126 27.891 6.733 11.627 10.257 24.836 10.202 38.272v164.271l143.74 83.507c11.674 6.601 21.389 16.183 28.143 27.767 6.758 11.588 10.321 24.759 10.321 38.17s-3.563 26.581-10.321 38.17c-6.754 11.584-16.469 21.167-28.143 27.767zM479.599 412.873l-224.506 129.137c-5.154 3.145-11.074 4.808-17.111 4.808s-11.958-1.664-17.112-4.808l-161.534-91.261c-11.558-6.699-21.152-16.311-27.822-27.887-6.67-11.571-10.181-24.695-10.181-38.050 0-13.359 3.511-26.479 10.181-38.054 6.67-11.571 16.264-21.188 27.822-27.883l144.195-83.507v-166.097c-0.054-13.436 3.468-26.645 10.203-38.272s16.443-21.257 28.127-27.891c11.521-6.874 24.687-10.5 38.102-10.5s26.581 3.627 38.102 10.5l161.078 91.26c5.312 2.901 9.732 7.198 12.787 12.425s4.629 11.183 4.553 17.237v256.448c0.512 6.43-0.849 12.873-3.93 18.543-3.076 5.67-7.735 10.325-13.41 13.397l0.457 0.457z" />
<glyph unicode="&#xe92f;" d="M753.387 568.932c5.103 3.102 9.331 7.453 12.284 12.643s4.535 11.046 4.599 17.018v186.176c0.009 13.358-3.499 26.482-10.163 38.059s-16.252 21.198-27.81 27.899c-11.554 6.702-24.666 10.249-38.025 10.285s-26.487-3.439-38.080-10.078l-144.196-83.049-144.193 83.049c-11.591 6.639-24.724 10.115-38.081 10.078s-26.471-3.583-38.026-10.285c-11.555-6.702-21.145-16.323-27.809-27.899s-10.169-24.701-10.162-38.059v-186.176c0.062-5.971 1.644-11.828 4.599-17.018s7.182-9.541 12.285-12.643l224.048-129.136c5.274-3.034 11.26-4.608 17.34-4.561 5.948-0.107 11.802 1.476 16.883 4.561l224.508 129.136zM690.415 791.156c1.178 0.681 2.517 1.039 3.878 1.039s2.701-0.358 3.878-1.039c1.229-0.637 2.236-1.633 2.889-2.855s0.917-2.613 0.764-3.989v-165.641l-155.605-91.263v181.156l144.196 82.592zM322.171 784.311c-0.155 1.376 0.11 2.767 0.762 3.989s1.659 2.218 2.889 2.855c1.179 0.681 2.517 1.039 3.879 1.039s2.699-0.358 3.878-1.039l144.194-83.049v-182.525l-155.601 91.262v167.466zM964.203 448.922l-161.079 91.262c-5.154 3.145-11.072 4.808-17.109 4.808s-11.959-1.664-17.114-4.808l-224.047-127.768c-5.316-2.901-9.737-7.198-12.791-12.42-3.055-5.227-4.629-11.187-4.548-17.237v-258.731c-0.081-6.054 1.493-12.011 4.548-17.237s7.475-9.523 12.791-12.425l161.075-91.26c11.524-6.874 24.687-10.5 38.101-10.5 13.419 0 26.581 3.627 38.106 10.5 11.682 6.635 21.389 16.265 28.126 27.891 6.733 11.627 10.257 24.836 10.202 38.272v164.271l143.74 83.507c11.674 6.601 21.389 16.183 28.147 27.767 6.754 11.588 10.317 24.759 10.317 38.17s-3.563 26.581-10.317 38.17c-6.758 11.584-16.474 21.167-28.147 27.767zM747.908 61.056c-1.178-0.678-2.513-1.037-3.878-1.037-1.361 0-2.697 0.358-3.878 1.037l-144.192 83.051v182.524l156.058-91.264v-166.097c0.277-1.626 0.030-3.302-0.708-4.779s-1.929-2.679-3.401-3.435zM930.436 376.824l-144.653-83.959-156.058 91.26 156.058 87.612 143.74-83.503c1.242-0.661 2.278-1.647 2.999-2.854 0.725-1.203 1.105-2.586 1.105-3.989-0.201-1.054-0.631-2.052-1.263-2.918s-1.446-1.587-2.385-2.103l0.457 0.457zM479.599 412.873l-224.506 129.137c-5.154 3.145-11.074 4.808-17.111 4.808s-11.958-1.664-17.112-4.808l-161.534-91.261c-11.558-6.699-21.152-16.311-27.822-27.887-6.67-11.571-10.181-24.695-10.181-38.050 0-13.359 3.511-26.479 10.181-38.054 6.67-11.571 16.264-21.188 27.822-27.883l144.195-83.507v-166.097c-0.054-13.436 3.468-26.645 10.203-38.272s16.443-21.257 28.127-27.891c11.522-6.874 24.687-10.5 38.102-10.5s26.581 3.627 38.102 10.5l161.078 91.26c5.312 2.901 9.732 7.198 12.787 12.425s4.629 11.183 4.553 17.237v256.448c0.512 6.43-0.853 12.873-3.93 18.543s-7.735 10.325-13.41 13.397l0.457 0.457zM89.908 380.476c-0.096 1.37 0.195 2.735 0.841 3.947s1.619 2.214 2.809 2.897l144.651 84.416 156.058-91.26-156.058-87.612-144.651 83.503c-0.859 0.397-1.627 0.964-2.255 1.673s-1.103 1.536-1.395 2.436zM283.841 61.056c-1.179-0.678-2.517-1.037-3.879-1.037s-2.7 0.358-3.878 1.037c-1.241 0.661-2.278 1.647-3.002 2.854-0.723 1.203-1.105 2.586-1.105 3.989v165.641l156.059 91.264v-182.524l-144.195-81.225z" />
<glyph unicode="&#xe930;" d="M697.438 159.906l211.614 122.313c17.57 10.142 32.196 24.687 42.436 42.202s15.744 37.393 15.966 57.677v245.472c-0.043 20.495-5.461 40.619-15.706 58.367-10.249 17.748-24.973 32.5-42.697 42.784l-211.614 121.888c-17.707 10.174-37.773 15.528-58.193 15.528s-40.486-5.354-58.193-15.528l-211.612-121.888c-17.62-10.369-32.234-25.151-42.401-42.888s-15.537-37.818-15.581-58.263v-245.472c0.075-20.378 5.462-40.388 15.63-58.052s24.765-32.371 42.352-42.671l211.612-122.313c17.954-9.574 38.063-14.383 58.406-13.969 20.326-0.068 40.316 5.184 57.98 15.236v-0.422z" />
<glyph unicode="&#xe931;" d="M298.354 39.433c-20.537 0.077-40.697 5.521-58.481 15.795l-128.059 73.847c-17.71 10.419-32.409 25.263-42.661 43.072-10.251 17.805-15.702 37.973-15.82 58.522v150.255c0.076 20.557 5.509 40.738 15.764 58.556 10.255 17.813 24.978 32.649 42.716 43.038l90.495 50.798c7.283 3.9 15.791 4.834 23.747 2.607s14.742-7.444 18.94-14.559c4.046-7.208 5.105-15.715 2.951-23.694-2.155-7.983-7.352-14.801-14.476-18.991l-90.068-55.066c-7.552-4.425-13.909-10.628-18.521-18.065-4.612-7.441-7.339-15.889-7.945-24.623v-148.122c0.040-9.318 2.5-18.466 7.139-26.547 4.64-8.085 11.299-14.822 19.326-19.554l128.060-73.847c8.139-4.604 17.329-7.019 26.679-7.019s18.54 2.415 26.679 7.019l96.045 54.639c3.644 2.099 7.667 3.465 11.835 4.011 4.173 0.55 8.41 0.269 12.471-0.819 4.066-1.092 7.872-2.97 11.209-5.53 3.337-2.564 6.135-5.76 8.239-9.404 2.103-3.639 3.465-7.663 4.015-11.836 0.546-4.169 0.269-8.405-0.823-12.471-1.088-4.062-2.97-7.872-5.53-11.209-2.564-3.337-5.756-6.135-9.399-8.235l-96.047-55.492c-17.659-10.722-37.827-16.61-58.481-17.075zM844.74 36.015c-10.351-6.076-22.14-9.284-34.146-9.284s-23.799 3.209-34.15 9.284c-10.347 5.978-18.948 14.558-24.939 24.896-5.995 10.338-9.169 22.067-9.212 34.014 0.043 11.947 3.217 23.676 9.212 34.014 5.99 10.334 14.592 18.918 24.939 24.892 10.351 6.080 22.144 9.284 34.15 9.284s23.795-3.204 34.146-9.284c10.347-5.973 18.948-14.558 24.939-24.892 5.995-10.338 9.169-22.067 9.212-34.014-0.115-11.874-3.328-23.518-9.314-33.771-5.99-10.257-14.549-18.773-24.836-24.713v-0.427zM698.325 156.822l213.436 123.362c17.719 10.231 32.474 24.9 42.803 42.564 10.325 17.664 15.876 37.713 16.102 58.176v247.582c-0.043 20.671-5.508 40.968-15.842 58.869-10.338 17.901-25.186 32.78-43.063 43.152l-213.436 122.937c-17.856 10.261-38.097 15.661-58.692 15.661-20.599 0-40.836-5.4-58.692-15.661l-213.435-122.937c-17.771-10.459-32.511-25.367-42.766-43.258s-15.671-38.143-15.715-58.764v-247.582c0.076-20.557 5.509-40.738 15.764-58.556 10.255-17.813 24.978-32.649 42.716-43.038l213.435-123.362c18.103-9.66 38.387-14.511 58.906-14.089 20.501-0.073 40.661 5.227 58.479 15.369v-0.427zM666.313 797.118l213.431-122.937c8.171-4.716 14.955-11.498 19.674-19.665s7.211-17.431 7.219-26.864v-246.728c-0.038-9.37-2.547-18.56-7.266-26.654-4.723-8.094-11.49-14.801-19.627-19.447l-213.431-123.362c-8.141-4.604-17.331-7.023-26.679-7.023s-18.539 2.419-26.679 7.023l-213.433 123.362c-8.027 4.732-14.687 11.473-19.326 19.554s-7.099 17.229-7.139 26.547v247.582c0.049 9.375 2.51 18.579 7.145 26.727s11.289 14.967 19.321 19.801l213.433 122.937c8.196 4.684 17.455 7.183 26.893 7.257 9.31-0.030 18.445-2.534 26.466-7.257v-0.854z" />
<glyph unicode="&#xe932;" d="M465.062 462.149l-375.203 150.955c-10.151 4.074-18.856 11.128-24.989 20.249s-9.412 19.889-9.412 30.91c0 11.021 3.279 21.789 9.412 30.91s14.838 16.175 24.989 20.249l375.203 150.495c29.218 11.654 61.739 11.654 90.957 0l373.837-150.495c10.15-4.074 18.859-11.128 24.99-20.249 6.135-9.12 9.412-19.889 9.412-30.91s-3.277-21.789-9.412-30.91c-6.131-9.121-14.839-16.175-24.99-20.249l-373.837-150.955c-29.299-11.209-61.658-11.209-90.957 0zM938.658 469.325l-40.401 40.405c-14.345 14.342-35.802 18.865-54.711 11.533l-271.262-105.165c-41.092-16.538-86.963-16.538-128.055 0l-259.484 103.148c-21.338 8.482-45.696 2.939-61.263-13.94l-38.262-41.489c-10.066-4.147-12.684-5.696-18.743-14.763-6.059-9.071-9.294-19.742-9.294-30.656 0-10.918 3.235-21.589 9.294-30.656 1.867-2.795 3.407-5.922 4.94-9.033 3.44-6.98 6.839-13.884 13.804-16.751l377.305-150.955c30.281-11.921 63.932-11.921 94.212 0l375.932 150.955c10.010 4.279 18.526 11.456 24.465 20.604 5.939 9.152 9.028 19.87 8.883 30.784-0.145 10.918-3.529 21.547-9.711 30.537-1.907 2.773-3.486 5.879-5.056 8.964-3.507 6.903-6.967 13.709-13.965 16.478h1.374zM883.422 275.17c26.999 12.006 54.609-15.556 42.645-42.577h-1.37c10.261-3.934 19.115-10.871 25.404-19.908 6.293-9.037 9.737-19.763 9.882-30.784 0.149-11.021-3.004-21.837-9.050-31.040-6.050-9.203-14.711-16.375-24.866-20.587l-375.932-150.494c-30.187-12.395-64.021-12.395-94.212 0l-357.341 161.058c-10.208 4.070-18.961 11.127-25.129 20.245-6.167 9.122-9.464 19.891-9.464 30.912s3.297 21.79 9.464 30.912c1.951 2.884 2.833 4.71 3.452 5.99 1.337 2.769 1.437 2.978 8.417 5.764 0 29.837 30.974 49.591 58.028 37.005l278.275-129.463c52.291-20.796 110.522-20.796 162.81 0l298.987 132.966z" />
<glyph unicode="&#xe933;" d="M510.724-31.253c-19.102-0.060-38.033 3.554-55.77 10.641l-349.496 140.053c-15.39 6.17-28.58 16.806-37.87 30.541-9.29 13.73-14.255 29.931-14.255 46.511s4.965 32.781 14.255 46.515c9.29 13.734 22.48 24.367 37.87 30.537 3.956 1.724 8.221 2.628 12.537 2.654 4.315 0.030 8.592-0.819 12.571-2.487 3.979-1.673 7.578-4.134 10.579-7.236 3.001-3.098 5.343-6.775 6.883-10.807 1.666-4.092 2.452-8.486 2.31-12.902-0.143-4.412-1.213-8.747-3.139-12.723-1.927-3.972-4.668-7.497-8.045-10.342s-7.315-4.949-11.558-6.178c-3.546-1.446-6.578-3.921-8.703-7.108s-3.245-6.938-3.217-10.769c-0.088-3.844 1.009-7.62 3.141-10.82 2.132-3.196 5.197-5.662 8.778-7.061l349.922-139.627c20.48-8.286 43.379-8.286 63.855 0l352.478 140.48c3.584 1.395 6.647 3.861 8.781 7.061 2.133 3.196 3.23 6.976 3.14 10.816-0.137 3.686-1.335 7.253-3.452 10.274-2.112 3.021-5.052 5.363-8.469 6.754-4.070 1.489-7.787 3.802-10.923 6.793s-5.619 6.601-7.3 10.594c-1.677 3.998-2.513 8.294-2.453 12.629 0.060 4.331 1.011 8.606 2.799 12.557 1.54 4.028 3.883 7.706 6.882 10.807s6.601 5.564 10.577 7.232c3.981 1.673 8.256 2.522 12.574 2.492 4.314-0.030 8.58-0.93 12.535-2.654 15.39-6.17 28.582-16.806 37.871-30.537 9.289-13.734 14.255-29.935 14.255-46.515s-4.966-32.781-14.255-46.511c-9.289-13.734-22.481-24.371-37.871-30.541l-352.051-140.48c-17.737-7.087-36.668-10.701-55.765-10.641zM510.724 198.622c-19.127 0.098-38.054 3.853-55.77 11.068l-349.496 139.631c-15.39 6.17-28.58 16.806-37.87 30.537-9.29 13.734-14.255 29.935-14.255 46.515s4.965 32.781 14.255 46.511c9.29 13.734 22.48 24.371 37.87 30.541l42.569 16.601c3.93 1.734 8.17 2.657 12.465 2.713s8.558-0.754 12.533-2.384c3.974-1.629 7.579-4.044 10.599-7.1 3.019-3.055 5.391-6.69 6.973-10.683 1.662-3.964 2.517-8.218 2.516-12.518-0.001-4.297-0.859-8.555-2.524-12.518s-4.102-7.552-7.171-10.564c-3.068-3.012-6.706-5.38-10.7-6.967l-42.57-16.602c-3.581-1.399-6.646-3.861-8.779-7.061s-3.229-6.976-3.141-10.82c-0.028-3.831 1.092-7.582 3.217-10.769s5.156-5.662 8.703-7.108l349.923-139.631c20.48-8.282 43.375-8.282 63.855 0l349.922 140.48c3.55 1.446 6.579 3.925 8.704 7.113s3.247 6.938 3.217 10.769c0.090 3.84-1.007 7.62-3.14 10.816-2.133 3.2-5.197 5.666-8.781 7.061l-42.569 16.602c-3.913 1.54-7.484 3.831-10.513 6.75-3.025 2.918-5.449 6.404-7.13 10.257s-2.586 8-2.662 12.207c-0.077 4.203 0.674 8.38 2.214 12.292 1.536 3.913 3.827 7.488 6.746 10.513 2.918 3.027 6.404 5.45 10.257 7.13 3.857 1.68 8.004 2.584 12.207 2.662s8.38-0.674 12.297-2.211l42.569-17.027c15.39-6.17 28.578-16.806 37.871-30.541 9.289-13.73 14.255-29.931 14.255-46.511s-4.966-32.781-14.255-46.515c-9.293-13.73-22.481-24.367-37.871-30.537l-349.5-139.631c-18.108-7.373-37.487-11.136-57.041-11.068zM510.724 426.373c-19.127 0.094-38.054 3.853-55.77 11.068l-349.496 141.757c-15.39 6.169-28.58 16.805-37.87 30.538s-14.255 29.933-14.255 46.513c0 16.58 4.965 32.78 14.255 46.513s22.48 24.369 37.87 30.538l349.496 140.055c35.81 14.264 75.725 14.264 111.535 0l349.5-140.055c15.386-6.169 28.578-16.805 37.867-30.538 9.293-13.733 14.255-29.933 14.255-46.513s-4.962-32.781-14.255-46.513c-9.289-13.733-22.481-24.369-37.867-30.538l-349.5-139.628c-17.566-7.949-36.501-12.429-55.765-13.197zM478.797 496.61c20.476-8.282 43.375-8.282 63.855 0l351.198 142.61c3.55 1.447 6.579 3.924 8.704 7.111s3.247 6.938 3.217 10.768c-0.085 3.698-1.259 7.289-3.383 10.319-2.121 3.030-5.090 5.365-8.538 6.709l-351.198 140.055c-20.48 8.284-43.379 8.284-63.855 0l-351.202-140.055c-3.581-1.397-6.646-3.862-8.778-7.060s-3.229-6.976-3.141-10.819c0.137-3.685 1.335-7.251 3.45-10.271s5.055-5.367 8.47-6.757l351.202-142.61z" />
<glyph unicode="&#xe934;" d="M967.881 484.246l-398.485 398.312c-7.518 7.636-16.482 13.7-26.372 17.839-9.886 4.139-20.497 6.271-31.215 6.271-10.722 0-21.333-2.132-31.219-6.271-9.89-4.139-18.854-10.203-26.372-17.839l-398.484-398.312c-15.201-15.305-23.732-35.998-23.732-57.562 0-21.568 8.531-42.261 23.732-57.566l398.484-398.31c7.531-7.62 16.499-13.679 26.381-17.822 9.886-4.143 20.493-6.289 31.211-6.319 10.714 0.030 21.321 2.176 31.206 6.319 9.882 4.143 18.85 10.202 26.381 17.822l398.485 398.31c7.637 7.518 13.705 16.478 17.847 26.359 4.139 9.882 6.272 20.489 6.272 31.206 0 10.714-2.133 21.321-6.272 31.202-4.143 9.882-10.21 18.846-17.847 26.359zM511.808 383.045l-43.657 43.639 43.657 43.635 43.657-43.635-43.657-43.639z" />
<glyph unicode="&#xe935;" d="M967.881 484.246l-398.485 398.312c-7.518 7.636-16.482 13.7-26.372 17.839-9.886 4.139-20.497 6.271-31.215 6.271-10.722 0-21.333-2.132-31.219-6.271-9.89-4.139-18.854-10.203-26.372-17.839l-398.484-398.312c-15.202-15.305-23.732-35.998-23.732-57.562 0-21.568 8.531-42.261 23.732-57.566l398.484-398.31c7.531-7.62 16.499-13.679 26.381-17.822 9.886-4.143 20.493-6.289 31.211-6.319 10.714 0.030 21.321 2.176 31.206 6.319 9.882 4.143 18.85 10.202 26.381 17.822l398.485 398.31c7.637 7.518 13.705 16.478 17.847 26.359 4.139 9.882 6.272 20.489 6.272 31.206 0 10.714-2.133 21.321-6.272 31.202-4.143 9.882-10.21 18.846-17.847 26.359zM503.445 833.349c1.084 1.123 2.381 2.016 3.819 2.627s2.982 0.925 4.544 0.925c1.557 0 3.102-0.314 4.54-0.925s2.735-1.504 3.819-2.627l128.183-128.128-229.43-229.329-136.544 136.483 221.069 220.974zM511.808 383.045l-43.657 43.639 43.657 43.635 43.657-43.635-43.657-43.639zM104.963 435.038l128.183 128.128 229.429-229.329-136.542-136.486-221.070 220.975c-1.124 1.084-2.018 2.381-2.628 3.819-0.61 1.434-0.925 2.978-0.925 4.54 0 1.557 0.315 3.102 0.925 4.54 0.611 1.434 1.504 2.731 2.628 3.814zM520.166 20.015c-0.866-1.442-2.095-2.637-3.558-3.465s-3.119-1.263-4.8-1.263c-1.685 0-3.341 0.435-4.804 1.263s-2.692 2.022-3.558 3.465l-128.183 128.128 229.431 229.329 136.542-136.482-221.069-220.975zM918.652 418.326l-128.183-128.128-229.431 229.331 136.542 136.484 221.073-220.975c1.122-1.084 2.014-2.381 2.628-3.814 0.61-1.438 0.922-2.982 0.922-4.54 0-1.562-0.311-3.106-0.922-4.54-0.614-1.438-1.506-2.735-2.628-3.819z" />
<glyph unicode="&#xe936;" d="M282.791 437.082c-43.273 0-85.574 12.834-121.553 36.873-35.98 24.043-64.023 58.213-80.583 98.192s-20.893 83.97-12.451 126.412c8.442 42.441 29.28 81.426 59.878 112.024s69.583 51.436 112.024 59.878c42.441 8.442 86.433 4.109 126.412-12.451s74.147-44.603 98.19-80.583c24.043-35.98 36.873-78.281 36.873-121.553-0.111-57.993-23.198-113.579-64.205-154.587s-96.592-64.094-154.585-64.205zM741.21-21.333c-43.273 0-85.572 12.83-121.553 36.873-35.981 24.038-64.026 58.21-80.585 98.189s-20.89 83.968-12.45 126.413c8.444 42.441 29.282 81.425 59.878 112.021 30.601 30.601 69.585 51.439 112.026 59.878 42.441 8.444 86.434 4.109 126.413-12.45s74.146-44.604 98.189-80.58c24.038-35.981 36.873-78.281 36.873-121.553-0.111-57.997-23.198-113.583-64.205-154.59s-96.593-64.094-154.586-64.201zM282.791-21.333c-43.273 0-85.574 12.83-121.553 36.873-35.98 24.038-64.023 58.21-80.583 98.189s-20.893 83.968-12.451 126.413c8.442 42.441 29.28 81.425 59.878 112.021 30.598 30.601 69.583 51.439 112.024 59.878 42.441 8.444 86.433 4.109 126.412-12.45s74.147-44.604 98.19-80.58c24.043-35.981 36.873-78.281 36.873-121.553-0.111-57.997-23.198-113.583-64.205-154.59s-96.592-64.094-154.585-64.201zM741.21 437.082c-43.273 0-85.572 12.834-121.553 36.873-35.981 24.043-64.026 58.213-80.585 98.192s-20.89 83.97-12.45 126.412c8.444 42.441 29.282 81.426 59.878 112.024 30.601 30.598 69.585 51.436 112.026 59.878s86.434 4.109 126.413-12.451c39.979-16.56 74.146-44.603 98.189-80.583 24.038-35.98 36.873-78.281 36.873-121.553-0.111-57.993-23.198-113.579-64.205-154.587s-96.593-64.094-154.586-64.205z" />
<glyph unicode="&#xe937;" d="M282.791 437.086c-43.273 0-85.574 12.83-121.553 36.873s-64.023 58.211-80.583 98.19c-16.56 39.979-20.893 83.97-12.451 126.412s29.28 81.426 59.878 112.024c30.598 30.598 69.583 51.436 112.024 59.878s86.433 4.109 126.412-12.451c39.979-16.56 74.147-44.603 98.19-80.583s36.873-78.281 36.873-121.553c-0.111-57.993-23.198-113.58-64.205-154.585-41.006-41.007-96.592-64.094-154.585-64.205zM282.791 812.155c-30.909 0-61.124-9.166-86.824-26.338s-45.731-41.58-57.559-70.136c-11.828-28.556-14.923-59.979-8.893-90.294s20.914-58.161 42.77-80.017c21.856-21.856 49.702-36.741 80.017-42.769s61.738-2.935 90.294 8.892c28.556 11.829 52.964 31.86 70.136 57.559s26.338 55.915 26.338 86.824c0 41.448-16.465 81.198-45.773 110.506s-69.058 45.773-110.506 45.773zM741.21-21.333c-43.273 0-85.572 12.83-121.553 36.873s-64.026 58.21-80.585 98.189c-16.559 39.979-20.89 83.972-12.45 126.413 8.444 42.441 29.282 81.425 59.878 112.026 30.601 30.596 69.585 51.435 112.026 59.878 42.441 8.439 86.434 4.109 126.413-12.45s74.146-44.604 98.189-80.585c24.043-35.981 36.873-78.281 36.873-121.553-0.111-57.993-23.198-113.579-64.205-154.586s-96.593-64.094-154.586-64.205zM741.21 353.737c-30.908 0-61.124-9.165-86.822-26.338-25.702-17.173-45.734-41.579-57.562-70.135s-14.921-59.981-8.892-90.295c6.029-30.315 20.915-58.159 42.769-80.017 21.858-21.854 49.702-36.74 80.017-42.769s61.739-2.935 90.295 8.892c28.557 11.831 52.962 31.859 70.135 57.562 17.173 25.698 26.338 55.915 26.338 86.822 0 41.446-16.465 81.199-45.773 110.507s-69.060 45.773-110.507 45.773zM282.791-21.333c-43.273 0-85.574 12.83-121.553 36.873s-64.023 58.21-80.583 98.189c-16.56 39.979-20.893 83.972-12.451 126.413s29.28 81.425 59.878 112.026c30.598 30.596 69.583 51.435 112.024 59.878 42.441 8.439 86.433 4.109 126.412-12.45s74.147-44.604 98.19-80.585c24.043-35.981 36.873-78.281 36.873-121.553-0.111-57.993-23.198-113.579-64.205-154.586s-96.592-64.094-154.585-64.205zM282.791 353.737c-30.909 0-61.124-9.165-86.824-26.338s-45.731-41.579-57.559-70.135c-11.828-28.557-14.923-59.981-8.893-90.295s20.914-58.159 42.77-80.017c21.856-21.854 49.702-36.74 80.017-42.769s61.738-2.935 90.294 8.892c28.556 11.831 52.964 31.859 70.136 57.562 17.173 25.698 26.338 55.915 26.338 86.822 0 41.446-16.465 81.199-45.773 110.507s-69.058 45.773-110.506 45.773zM741.21 437.086c-43.273 0-85.572 12.83-121.553 36.873s-64.026 58.211-80.585 98.19c-16.559 39.979-20.89 83.97-12.45 126.412 8.444 42.441 29.282 81.426 59.878 112.024 30.601 30.598 69.585 51.436 112.026 59.878s86.434 4.109 126.413-12.451c39.979-16.56 74.146-44.603 98.189-80.583s36.873-78.281 36.873-121.553c-0.111-57.993-23.198-113.58-64.205-154.585-41.007-41.007-96.593-64.094-154.586-64.205zM741.21 812.155c-30.908 0-61.124-9.166-86.822-26.338-25.702-17.172-45.734-41.58-57.562-70.136s-14.921-59.979-8.892-90.294c6.029-30.316 20.915-58.161 42.769-80.017 21.858-21.856 49.702-36.741 80.017-42.769s61.739-2.935 90.295 8.892c28.557 11.829 52.962 31.86 70.135 57.559s26.338 55.915 26.338 86.824c0 41.448-16.465 81.198-45.773 110.506s-69.060 45.773-110.507 45.773z" />
</font>
</defs>
</svg>
